超人ひじりのエアマッソー
IOSYS feat. ビートまりお
EXTREME
Level: 9
BPM: 210
Notes: 607
1
口口口口 |----|
口口口口 |----|
口口口口 |----|
口口口口 |----|
2
口口口口 |----|
口口口口 |----|
口口口口 |----|
口口口口 |----|
3
口口②口 |①---|
①③口① |②-③-|
口⑦④口 |④-⑤-|
口⑤⑥口 |⑥-⑦-|
4
口②③口 |①-②-|
口④①口 |③-④-|
口⑧⑤口 |⑤-⑥-|
口⑥⑦口 |⑦-⑧-|
5
口口口口 |①---|
①口口① |②---|
②⑥③② |③-④-|
口④⑤口 |⑤-⑥-|
6
口②③口 |①-②-|
口④①口 |③-④-|
口⑧⑤口 |⑤-⑥-|
口⑥⑦口 |⑦-⑧-|
7
口口②口 |①---|
①③口① |--②-|
口口④口 |③-④-|
口⑤⑥口 |⑤-⑥-|
8
口③④口 |①-②-|
口⑤②口 |③-④-|
口①⑥口 |⑤-⑥-|
口⑦⑧口 |⑦-⑧-|
9
①口口① |①---|
∨口口∨ |②---|
②口口② |----|
口口口口 |----|
10
口④③② |①---|
口口口⑤ |--②③|
①口口① |④---|
口口口口 |⑤---|
11
①口口口 |①---|
②②口口 |②---|
③③③口 |③---|
④④④④ |④---|
12
口口口口 |①-②-|
口③②① |③---|
④口口④ |④---|
口口口口 |----|
13
口口①① |①---|
口口②② |②---|
口③③③ |③---|
④④④④ |④---|
14
口口口口 |①-②-|
①②③口 |③---|
④口口④ |④---|
口口口口 |----|
15
①①①口 |①---|
②②口口 |②---|
③③③口 |③---|
④④④④ |④---|
16
口口口口 |①-②-|
口③②① |③---|
④口口④ |④---|
口口口口 |----|
17
口口②① |①-②-|
③④口口 |③-④-|
口口⑥⑤ |⑤-⑥-|
口⑦⑦口 |--⑦-|
18
口①口口 |--①-|
④口②④ |②-③-|
④③口④ |④---|
口口口口 |----|
19
①口①口 |①---|
口②口④ |②---|
⑤口口③ |③---|
口口口口 |④-⑤-|
20
口口①口 |----|
口②口口 |①-②-|
口口③口 |③-④-|
口④口口 |----|
21
口③口① |①-②-|
⑤口②口 |③---|
④口口⑥ |④---|
口口口口 |⑤-⑥-|
22
口②①口 |--①-|
口④③口 |②-③-|
口⑥⑤口 |④-⑤-|
口口口口 |⑥---|
23
④⑤⑥口 |①-②-|
⑦口口③ |③-④⑤|
口口口② |⑥-⑦-|
口⑧⑧① |--⑧-|
24
④口口⑤ |--①-|
口口口口 |②-③-|
口③②① |④-⑤-|
⑥口口⑦ |⑥-⑦-|
25
口①①口 |①---|
①③<② |②---|
①>③② |③---|
口②②口
口口口口
口④口口
口口④口
口口口口 |④---|
26
口①①口 |①---|
①∨③② |②---|
①③∧② |③---|
口②②口
口口口口
口口④口
口④口口
口口口口 |④---|
27
①口③口 |①-②-|
口②口⑤ |③---|
⑥口口④ |④---|
口口口口 |⑤-⑥-|
28
口口④口 |--①-|
口口①口 |②-③-|
口②⑤口 |④-⑤-|
③口口口 |----|
29
口①口① |①---|
④口②口 |②---|
③口口⑤ |③---|
口口口口 |④-⑤-|
30
口①②口 |--①-|
口③④口 |②-③-|
口⑤口口 |④-⑤-|
口口口口 |----|
31
⑤口口口 |①-②-|
口④④① |③---|
口口口② |④---|
⑤③③口 |⑤---|
32
口③③⑤ |①-②-|
①口口口 |③---|
②④④口 |④---|
口口口⑤ |⑤---|
33
口④④口 |①-②-|
①③③① |----|
②口口② |③-④-|
口口口口 |----|
34
口口⑩⑩ |①②③④|
⑨口口⑩ |⑤⑥⑦⑧|
⑤⑥⑦⑧ |⑨---|
①②③④ |⑩---|
35
口口口口 |①---|
口①口∨ |②---|
口②口| |③---|
口口口③
口口口④
口口口口
口口口口
口口口④ |④---|
36
口口口口 |①---|
∨口①口 |②---|
|口②口 |③---|
③口口口
④口口口
口口口口
口口口口
④口口口 |④---|
37
⑦口口⑤ |①-②-|
口③①口 |③-④-|
⑧口口⑥ |⑤-⑥-|
口④②口 |⑦-⑧-|
38
口口口口 |①-②-|
②口口① |③---|
口③③口
口口口口
口口口口
口∨∨口
口||口 |④---|
口④④口
口口口口
口口口口
口口口口
口⑤⑤口 |⑤---|
39
口口口口 |①---|
口①口∨ |②---|
口②口| |③---|
口口口③
口口口④
口口口口
口口口口
口口口④ |④---|
40
口口口口 |①---|
∨口①口 |②---|
|口②口 |③---|
③口口口
④口口口
口口口口
口口口口
④口口口 |④---|
41
口口②① |①-②-|
③④口口 |③-④-|
口口⑥⑤ |⑤-⑥-|
口⑦⑦口 |--⑦-|
42
口①口口 |--①-|
④口②④ |②-③-|
④③口④ |④---|
口口口口 |----|
43
②口>① |①-②-|
口口口口
口口口口
口口口口
口③口③
⑤口>④ |③---|
口口口口 |④-⑤-|
口口口口
口口口口
口⑥口⑥
口口口口
口口口口 |⑥---|
44
口口口口 |①-②-|
口口口口
②口>①
口口口口
口口口口
口口口口 |③---|
口③口③ |④-⑤-|
⑤口>④
口口口口
口口口口
口口口口
口⑥口⑥ |⑥---|
45
①<口② |①-②-|
口口口口
口口口口
口口口口
③口③口
④<口⑤ |③---|
口口口口 |④-⑤-|
口口口口
口口口口
⑥口⑥口
口口口口
口口口口 |⑥---|
46
口口口口 |①-②-|
口口口口
①<口②
口口口口
口口口口
口口口口 |③---|
③口③口 |④-⑤-|
④<口⑤
口口口口
口口口口
口口口口
⑥口⑥口 |⑥---|
47
②⑥⑤① |①-②-|
④⑧⑦③ |③-④-|
口口口口 |⑤-⑥-|
口口口口 |⑦-⑧-|
48
口口口口 |①---|
②口口② |----|
③①①③ |②---|
口口口口 |③---|
49
⑥口口⑤ |①-②-|
口⑥⑤口 |③-④-|
口口口口 |⑤---|
①②③④ |⑥---|
50
口②①口 |①---|
②口口① |②---|
口③③口 |③---|
口口口口 |----|
51
口口>① |①-|
口①口口
口口口口
口口口口
口口口② |②-|
口口>③ |③-|
口口口口
口③口口
口口口口
⑤口口④ |④-|
口口>⑤ |⑤-|
口口口口
口口口口
口口口口
口口口⑥ |⑥-|
⑦口>⑦ |⑦-|
口口口口
口口口口
口口口口
口口口⑧ |⑧-|
52
口口⑤⑤ |①-②-|
口②口④ |③-④-|
①口③口 |⑤---|
⑥⑥口口 |⑥---|
53
①<口口 |①-|
口口①口
口口口口
口口口口
②口口口 |②-|
③<口口 |③-|
口口口口
口口③口
口口口口
④口口⑤ |④-|
⑤<口口 |⑤-|
口口口口
口口口口
口口口口
⑥口口口 |⑥-|
⑦<口⑦ |⑦-|
口口口口
口口口口
口口口口
⑧口口口 |⑧-|
54
⑤⑤口口 |①-②-|
④口②口 |③-④-|
口③口① |⑤---|
口口⑥⑥ |⑥---|
55
>――① |①---|
口②③口 |----|
口口口口 |②---|
口口口口 |③---|
56
口口口口 |①---|
口口口口 |②---|
②④口口 |③---|
①③口口 |④---|
57
口口口口 |①---|
口口口口 |②---|
口口②④ |③---|
口口①③ |④---|
58
口口口① |①---|
①――< |----|
口口口口
口口口口
口口口口
②口口口
口口口口 |----|
口口口口 |②---|
59
①①口口 |①---|
口口口口 |②---|
②②>①
口口口口
口口口口
⑥⑤④③
口口口③ |③-④-|
口口口口 |⑤-⑥-|
60
口②口① |--①-|
口口口口 |--②-|
口口口口 |③-④-|
⑥⑤④③ |⑤-⑥-|
61
口口口口 |①---|
①<②① |②---|
口口口口
口口口口
口口口口
③口口口
③<④③ |③---|
口口口口 |④---|
62
口口口口 |①---|
口口口口 |②---|
①④口口 |③---|
口③②① |④---|
63
口∨②② |①---|
口①口口 |②---|
口口①①
口口口口
口口口口
口③口④
口口口口 |③---|
口口口口 |④---|
64
口口③口 |①-②-|
①口口口 |--③-|
②口口口
口口口口
⑤④口口
|口口口
|口口口 |--④-|
∧口口口 |--⑤-|
65
口口口口 |①-②-|
口③②① |③---|
口⑥⑤④ |④-⑤-|
口口口口 |⑥---|
66
③⑤口口 |①-②-|
口⑥口口 |③-④-|
口口口口 |⑤---|
④③②① |⑥---|
67
口口①① |①---|
口口口口 |②---|
>①②②
口口口口
口口口口
口口口④
口③口口 |③---|
口口口口 |④---|
68
①口⑤口 |①-②-|
②口口⑤ |--③-|
口口口口 |--④-|
口④口③ |--⑤-|
69
口口口∨ |----|
口①口| |①---|
②③①④ |②-③-|
口口口口 |--④-|
70
①口②口 |①---|
③口④口 |②---|
口口口④ |③---|
口口口口 |④---|
71
口⑦口口 |①-②-|
⑤①口② |③-④-|
口口口⑧ |⑤-⑥-|
口③⑥④ |⑦-⑧-|
72
⑥口①① |①-②-|
⑥⑥③③ |③-④-|
②②⑤口 |--⑤-|
④④⑤⑤ |⑥---|
73
口③②① |①-②-|
口口口口 |③---|
④⑤⑥口 |④-⑤-|
口口口口 |⑥---|
74
口口口口 |①-|
口口口①
口口口|
口口口∧
口口口口 |②-|
口口③② |③-|
口口|口
口口∧口
口口口口
口⑤④口 |④-|
口|口口 |⑤-|
口∧口口
口口口口
⑦⑥口口
|口口口 |⑥-|
∧口口口 |⑦-|
口口口口
⑧口口口
口口口口
口口口口 |⑧-|
75
口口口口 |①---|
口口口口 |②---|
②⑥⑤① |③-④-|
口④③口 |⑤-⑥-|
76
口①①口 |①---|
口∧∧口
口口口口
口口口口
口②②口
③―<口 |②---|
③―<口 |③---|
口口口口
口口口口
④口口口
④口口口
口口口口 |④---|
77
口口口口 |①---|
口>―① |----|
口>―① |----|
口口口口 |----|
78
①⑤④③ |①---|
口口口⑤ |②---|
②口口⑤ |③-④-|
口口口口 |⑤---|
79
口口口④ |①---|
口口③④ |②---|
口②③④ |③---|
①②③④ |④---|
80
④①口口 |①-②-|
口②口口 |③---|
④③口口 |④---|
口口口口 |----|
81
④口口口 |①---|
④③口口 |②---|
④③②① |③---|
④③②① |④---|
82
口口①④ |①-②-|
口口②口 |③---|
口口③④ |④---|
口口口口 |----|
83
口口口④ |①---|
①口③④ |②---|
①②③④ |③---|
①②③④ |④---|
84
④①口口 |①-②-|
口②口口 |③---|
④③口口 |④---|
口口口口 |----|
85
口口②① |①-②-|
③④口口 |③-④-|
口口⑥⑤ |⑤-⑥-|
口⑦⑦口 |--⑦-|
86
∨①口∨ |--①-|
④口②④ |②-③-|
④③口④ |④---|
∧口口∧ |----|
87
口口口口 |----|
口口口口 |----|
口口口口 |----|
口口口口 |----|
88
口口口口 |----|
①口口① |----|
①口口① |①---|
口口口口 |----|
不確定度: 1