星を飛び越えて
Liz Triangle
EXTREME
Level: 8
BPM: 160
Notes: 431
1
口口口口 |----|
口口口① |----|
口口口① |----|
口口口口 |①---|
2
①口②口 |①-②-|
③口④⑥ |③-④-|
⑤口口⑦ |⑤---|
口口口口 |⑥-⑦-|
3
①口∨口 |--①-|
口②|口 |②-③-|
口口③口
口口口口
口口口⑤
口口口口
口口④口 |----|
口口口口 |④-⑤-|
4
口①口口 |①-②-|
⑥③口② |③-④-|
⑦⑤口④ |⑤---|
口口口口 |⑥-⑦-|
5
口口④① |--①-|
口⑤②口 |②-③-|
口③⑥口 |--④-|
口口口口 |⑤-⑥-|
6
口③口口 |--①-|
②口④② |--②-|
口⑤口口 |--③-|
①口口① |④-⑤-|
7
口口①口 |--①-|
口②口口 |②-③-|
口口③口
口口口口
口∨口④
口|⑤口
口⑥口口 |--④-|
口口口口 |⑤-⑥-|
8
口口④口 |--①-|
②口口口 |②-③-|
③①口口 |--④-|
口口口口
口口∨∨
口口||
口口⑤⑤
口口口口 |--⑤-|
9
①口口口 |①---|
口②口口 |②---|
③口④④ |③---|
口④口口 |④---|
10
口口口口 |①-②-|
①口④① |③-④-|
口③口口
口口②口
口⑤口口
口口口⑥
口口口⑦ |⑤---|
口口口口 |⑥-⑦-|
11
①⑥①⑥ |--①-|
口口⑤口 |--②-|
②④口口 |③-④-|
口口③口 |⑤-⑥-|
12
口口口口 |--①-|
④口口③ |--②-|
口②口① |③-④-|
口⑥⑤口 |⑤-⑥-|
13
⑥口口⑤ |--①-|
④①①③ |--②-|
口②②口 |③-④-|
口口口口 |⑤-⑥-|
14
口③③口 |--①-|
口口口口 |②---|
④⑤②① |③---|
口口口口 |④-⑤-|
15
口口口口 |--①-|
口①①口 |--②-|
口口口口
②口口②
口口口口
口口⑤口
口④口口 |--③-|
口口③口 |④-⑤-|
16
口①口口 |①---|
①口口② |②-③-|
③口口口
口③口口
口∨∨口
口⑤⑤口
口⑤⑤④ |--④-|
口∧∧口 |⑤---|
17
口口口口 |----|
口①①口 |----|
口①①口 |①---|
口②②口 |②---|
18
口口口口 |①---|
①口③② |----|
|口口口 |----|
∧口口口 |②-③-|
19
口口②口 |--①-|
⑤③口口 |--②-|
口口④口 |③-④-|
口①①口 |⑤---|
20
口口口口 |①---|
②③口① |----|
口口口| |----|
口口口∧ |②-③-|
21
口口口口 |--①-|
口口口② |----|
口④③口 |②---|
口①①口 |③-④-|
22
口④④口 |①---|
①口③② |②-③-|
|⑤⑤口 |--④-|
∧口口口 |--⑤-|
23
口口③① |--①-|
③④口口 |--②-|
口口口② |③-④-|
口口口口
口∨口口
口|口口
口|⑤口
口⑥口口 |⑤-⑥-|
24
口口口口 |①---|
④③②① |②---|
口口口口 |③---|
口口口口 |④---|
25
口口①① |①---|
⑤⑥⑦口 |②-③-|
口口②② |④-⑤-|
口④③③ |⑥-⑦-|
26
①口口∨ |①---|
口口口① |②---|
②口口口
口口口口
口③口④
口口⑤③
口⑥口口 |③-④-|
口口口口 |⑤-⑥-|
27
口口②口 |①--②|
①③口口 |--③-|
口口②口
①口口口
∨口口口
⑥口⑤④
口⑤口口 |④--⑤|
⑥口口④ |--⑥-|
28
④口③① |①---|
③⑤口口 |②---|
口口⑥② |③-④-|
口口口口 |⑤-⑥-|
29
口②口⑥ |①--②|
④⑤③① |--③-|
口②⑤⑥ |④--⑤|
④口口① |--⑥-|
30
①①口口 |--①-|
口口口口 |②---|
②②口口
∧∧口口
口口口口
口口口④
③③口⑤ |③---|
口口口口 |④-⑤-|
31
④①口⑤ |--①-|
⑥口②口 |②-③-|
口③口口 |--④-|
口口口口 |⑤-⑥-|
32
口口口口 |①-②-|
口口口口
口口②②
①口口口
口口口口
口口口∨ |③---|
口③口|
口>③③
口口口⑤
口口④口
口口口口 |④---|
口口⑤⑤ |⑤---|
33
口②②口 |①---|
口④④口 |②-③-|
①③③① |--④-|
④⑤⑤④ |--⑤-|
34
∨口口① |①---|
①口口口 |②---|
口口口②
口口口口
④口③口
③⑤口口
口口⑥口 |③-④-|
口口口口 |⑤-⑥-|
35
口②口口 |①--②|
口口③① |--③-|
口②口口
口口口①
口口口∨
④⑤口⑥
口口⑤口 |④--⑤|
④口口⑥ |--⑥-|
36
①③口④ |①---|
口口⑤③ |②---|
②⑥口口 |③-④-|
口口口口 |⑤-⑥-|
37
口口②口 |①--②|
①③口口 |--③-|
口口②口
①口口口
口口口口
口口⑤④
口⑤口口 |④--⑤|
⑥⑥口④ |--⑥-|
38
①①口① |①---|
||口口 |②---|
∧∧口②
口口口口
③③③口
口口口④
口口⑤口 |③-④-|
口⑥口口 |⑤-⑥-|
39
口口口口 |--①-|
①口口口 |②-③-|
口②口口
口口③口
口口口口
⑥口口⑥
⑤口口⑤ |--④-|
④口口④ |⑤-⑥-|
40
⑤①④② |①-②-|
口口口口 |③---|
口⑥③口 |④-⑤-|
口③⑥口 |⑥---|
41
⑥⑥口口 |①-②-|
②③④⑤ |③-④-|
①口口① |⑤---|
口口口口 |⑥---|
42
∨∨口① |①---|
||口口 |②---|
||口②
①①口口
口口③口
口口⑥口
口⑤④口 |③-④-|
口口口口 |⑤-⑥-|
43
口口③口 |①---|
④①口② |②---|
口口口口 |③--④|
口口口口
口口∨∨
口口||
口口||
⑤⑤⑤⑤ |--⑤-|
44
①③口口 |①---|
口⑥口口 |②---|
②④⑤口 |③-④-|
口口口口 |⑤-⑥-|
45
口③口口 |①---|
②口①④ |②---|
口⑤口口 |③--④|
口口⑤⑤ |--⑤-|
46
∨∨口① |①---|
||口口 |②---|
||口②
①①口口
口口③口
口口⑥口
口⑤④口 |③-④-|
口口口口 |⑤-⑥-|
47
口口口口 |①---|
口①口② |②---|
口口口口
口口口口
口③口口
口④口口
口口口口 |③---|
⑤⑤口口 |④-⑤-|
48
口口口∨ |①---|
口口口①
口口口①
口口口∧
口③③口
口④④② |②-③-|
口∧∧② |④---|
口口口口
口口口口
口⑤⑤口
口口口口
口口口口 |⑤---|
49
口④③⑤ |①-②-|
口口⑥口 |③-④-|
②⑦口① |--⑤-|
口口口口 |⑥-⑦-|
50
①口∨∨ |①---|
口口|| |②---|
口口||
②②①①
口口口口
口⑤口口
口③④口 |--③-|
口口口口 |④-⑤-|
51
口③口口 |①---|
②口①④ |②---|
口口口口 |③--④|
口口口口
∨∨口口
||口口
||口口
⑤⑤⑤⑤ |--⑤-|
52
口口③① |①---|
口口⑥口 |②---|
口⑤④② |③-④-|
口口口口 |⑤-⑥-|
53
口口③口 |①---|
④①口② |②---|
口口⑤口 |③--④|
⑤⑤口口 |--⑤-|
54
①口∨∨ |①---|
口口|| |②---|
②口||
口口①①
口③口口
>⑥口口
口④⑤口 |③-④-|
口口口口 |⑤-⑥-|
55
口口口口 |----|
口①②< |①---|
口口口口 |②---|
口口口口
口口口口
口口④口
口口口口
口口③③ |③-④-|
56
②②①① |①---|
口口口口 |--②-|
②③③① |----|
口③③口 |--③-|
57
口①①口 |----|
①口口① |--①-|
口口口口 |----|
口②②口 |②---|
58
①∨>① |①---|
∧①①∨ |----|
①<∧① |----|
口口口口 |----|
59
口口口口 |----|
口口口口 |----|
口口口口 |----|
口口口口 |----|
60
口口口口 |----|
口口口口 |----|
口口口口 |----|
口口口口 |----|
61
口口口口 |----|
口口口口 |----|
口口口口 |----|
口口口口 |----|
62
口口口口 |----|
口口口口 |----|
口口口口 |----|
口口口口 |----|
63
①口口① |----|
口①①口 |①---|
①口口① |----|
口口口口 |----|
不確定度: 1