炉心融解 [2]
iroha
EXTREME
Level: 8
BPM: 165
Notes: 632
1
口口口口 |----|
口口口口 |----|
口口口口 |----|
口口口口 |----|
2
口口口口 |①---|
口口口口 |----|
口口口口 |----|
①口口口 |----|
3
口口口② |--①-|
口口口口 |----|
口口①口 |②---|
口口口口 |----|
4
口口口口 |①②③-|
①口口口 |----|
口③口口 |----|
口口②口 |----|
5
口口口口 |----|
口口口口 |①---|
口口口口 |----|
口口口① |----|
6
口口口口 |----|
口口口口 |----|
口口口口
口口口口
7
口口①口 |①-②-|
①②②① |③④⑤-|
④①口③
口口⑤口
⑪⑦口⑥
口口⑫⑩
口口⑧口 |⑥⑦⑧⑨|
口⑨口口 |⑩⑪⑫-|
8
口②口∨ |①---|
口口口| |--②-|
⑤④③| |--③-|
①口口① |④-⑤-|
9
口口口口 |①---|
口②口口 |--②-|
⑤④③口 |--③-|
①口口口 |④-⑤-|
10
口②口口 |①---|
口口口口 |--②-|
⑤④③口 |--③-|
①口口口 |④-⑤-|
11
口口口口 |①---|
口②③口 |--②-|
⑥⑤④口 |③-④-|
①口口① |⑤-⑥-|
12
口口②口 |①---|
口口口口 |--②-|
口③④⑤ |--③-|
①<口① |④-⑤-|
13
口口口口 |①---|
口口②口 |--②-|
口③④⑤ |--③-|
①口口① |④-⑤-|
14
口②>① |①---|
⑤④③口 |--②-|
口口口口 |--③-|
口口口口 |④-⑤-|
15
口④④① |①---|
口口口口 |②---|
①口口② |③---|
口③③口 |④---|
16
口口口口 |①-②-|
②①②口 |③-④-|
口口①④
③口④口
口口⑥口
口⑧口⑥
⑤⑦⑧口 |⑤-⑥-|
口口口口 |⑦-⑧-|
17
①口④④ |--①-|
③口①口 |--②-|
口口口口 |③---|
③②②口 |④---|
18
口口口口 |①-②-|
口②①② |③-④-|
口①④口
③口口④
口口⑥⑥
⑦口⑧口
⑤⑧口口 |⑤-⑥-|
口口口口 |⑦-⑧-|
19
①口③③ |--①-|
口口口① |--②-|
④④口口 |③---|
口②②口 |④---|
20
口口口口 |①-②-|
②①②口 |③-④-|
口口①④
③口④口
口口⑥口
口⑧口⑥
⑤⑦⑧口 |⑤-⑥-|
口口口口 |⑦-⑧-|
21
①口④④ |--①-|
③口①口 |--②-|
口口口口 |③---|
③②②口 |④---|
22
口口口口 |①-②-|
口②①② |③-④-|
口①④口
③口口④
口口⑥⑥
⑦口⑧口
⑤⑧口口 |⑤-⑥-|
口口口口 |⑦-⑧-|
23
①口口口 |--①-|
口口口① |--②-|
③④口③ |③---|
③②②③ |--④-|
24
④④①① |①---|
⑤口口⑤ |②-③-|
②⑥③② |④---|
口口口口 |⑤-⑥-|
25
口口②① |①-②-|
口③⑦口 |③-④-|
④⑧口⑥ |⑤-⑥-|
口口⑤口 |⑦-⑧-|
26
④④①① |①---|
②口⑤② |②-③-|
口⑥③口 |④---|
口口口口 |⑤-⑥-|
27
口口口口 |--①-|
④口口④ |②-③-|
口⑥口① |④---|
⑤③②⑤ |⑤-⑥-|
28
④④①① |①---|
⑤口口⑤ |②-③-|
②⑥③② |④---|
口口口口 |⑤-⑥-|
29
口口②① |①-②-|
口③⑦口 |③-④-|
④⑧口⑥ |⑤-⑥-|
口口⑤口 |⑦-⑧-|
30
④④①① |①---|
②口⑤② |②-③-|
口⑥③口 |④---|
口口口口 |⑤-⑥-|
31
口口口口 |--①-|
口口口口 |②---|
口口口①
口口②口
口口⑤口
③口④③
口口口⑥ |③-④-|
口口口口 |⑤-⑥-|
32
口口口口 |①---|
②口⑤口 |②-③-|
③④①口 |④-⑤-|
口口④口
⑦口口⑥
∧⑦∨口
口∧⑦∨
口口口⑦ |⑥-⑦-|
33
①口口口 |----|
口①③口 |--①-|
口④①口 |--②-|
口②口① |③-④-|
34
②口口口 |①---|
口口口口 |②---|
①口口②
口口口口
口⑥口口
口④③⑥
⑤口口口 |③-④-|
口口口口 |⑤-⑥-|
35
口口口口 |--①-|
口口口口 |②-③-|
口②①口
③<口口
口口⑤口
口口④口
口口口⑥ |--④-|
④口口口 |⑤-⑥-|
36
口口口口 |①---|
②口口⑤ |②-③-|
③口①口 |④-⑤-|
口④④口
口⑥口⑦
口∨⑦∧
∨⑦∧口
⑦口口口 |⑥-⑦-|
37
口口口① |----|
口口①口 |--①-|
④①口③ |--②-|
①②口口 |③-④-|
38
②<口口 |①---|
口口口口 |②---|
口口口口
口口①口
③口口口
口>③口
口口口口 |③---|
口口口口
口口口口
口口④⑤
④口口口
口口口口 |④-⑤-|
39
口口①① |--①-|
口④③口 |--②-|
④口⑤③ |--③-|
②口⑤口 |④-⑤-|
40
③⑦⑥② |①---|
⑤⑤口⑥ |②-③-|
⑦①口④ |④-⑤-|
口①口④ |⑥-⑦-|
41
④口口口 |①-②-|
口④③口 |③-④-|
口②①③
口②①口
口口口口
⑥口口⑤
口口⑦口 |--⑤-|
⑥口⑦⑤ |⑥-⑦-|
42
②口口② |①---|
口口口口 |②---|
口①口口
口①口口
口⑥⑥口
口④⑤⑤
④⑥⑥③ |③-④-|
口口口③ |⑤-⑥-|
43
口口口① |--①-|
②④④⑤ |②-③-|
⑥口口③ |④-⑤-|
口口⑦口 |⑥-⑦-|
44
③⑦⑥② |①---|
⑤⑤口⑥ |②-③-|
⑦①口④ |④-⑤-|
口①口④ |⑥-⑦-|
45
④口口口 |①-②-|
口④③口 |③-④-|
口②①③
口②①口
口口口口
⑥口口⑤
口口⑦口 |--⑤-|
⑥口⑦⑤ |⑥-⑦-|
46
②口口② |①---|
口口口口 |②---|
口①口口
口①口口
口⑥⑥口
口④⑤⑤
④⑥⑥③ |③-④-|
口口口③ |⑤-⑥-|
47
口口口① |--①-|
②③―< |②-③-|
③口口③ |----|
>―③口 |----|
48
口口口口 |----|
口①口口 |--①-|
口口口口 |----|
口口①口 |----|
49
口口口口 |①-②-|
口口口② |③④⑤-|
③⑤口口
①口④①
50
口口>① |①---|
口口①口
口口>①
口口口口
③<口②
口③口口 |②---|
③<口② |③---|
②②口口
④口口口
口口口口
④口口口
口口④④ |④---|
51
口口>① |①---|
口口①口
口口>①
口口口口
口口口②
口口口口 |②-③-|
口②③②
口口口口
④口口口
④口口口
⑤―<口 |--④-|
口⑤―< |--⑤-|
52
>―①口 |①---|
口>―①
口口口口
口口口口
口④②口
口口⑤② |--②-|
②③口口 |--③-|
口②口口 |④-⑤-|
53
③口口③ |①---|
口口口口 |②-③-|
口⑤⑥④ |--④-|
②②①① |⑤-⑥-|
54
口①―< |①---|
①―<口
口口口口
口口口口
口②口⑤
②口口口 |--②-|
口④口口 |--③-|
口③口口 |④-⑤-|
55
口口口口 |①---|
②④④口 |②-③-|
口口口③ |--④-|
①⑤⑤口 |--⑤-|
56
口口口口 |①---|
①④③① |②-③-|
⑤①①⑤ |④-⑤-|
②口⑥② |--⑥-|
57
口①⑤口 |①-②-|
③口口④ |③-④-|
⑥②口口 |⑤-⑥-|
口口口⑦ |⑦---|
58
口口>① |①---|
口口①口
口口>①
口口口口
③<口②
口③口口 |②---|
③<口② |③---|
②②口口
④口口口
口口口口
④口口口
口口④④ |④---|
59
口口>① |①---|
口口①口
口口>①
口口口口
口口口②
口口口口 |②-③-|
口②③②
口口口口
④口口口
④口口口
⑤―<口 |--④-|
口⑤―< |--⑤-|
60
>―①口 |①---|
口>―①
口口口口
口口口口
口④②口
口口⑤② |--②-|
②③口口 |--③-|
口②口口 |④-⑤-|
61
口口>③ |①---|
口口口口 |②-③-|
口口口口
②②①①
口口口④
口口口口
④<口口 |--④-|
口口口口
口口口口
口口口口
⑤口⑤口
口口口口 |--⑤-|
62
口①―< |①---|
①―<口
口口口口
口口口口
口②口⑤
②口口口 |--②-|
口④口口 |--③-|
口③口口 |④-⑤-|
63
口口口口 |①---|
②④④口 |②-③-|
口口口③ |--④-|
①⑤⑤口 |--⑤-|
64
口口口口 |①---|
①④③① |②-③-|
⑥①①⑤ |④-⑤-|
②口⑦② |⑥-⑦-|
65
口①⑤口 |①-②-|
③口口④ |③-④-|
⑥②口口 |⑤-⑥-|
口口口⑦ |⑦---|
66
口口口口 |①-②-|
②①②口 |③-④-|
口口①④
③口④口
口口⑥口
口⑧口⑥
⑤⑦⑧口 |⑤-⑥-|
口口口口 |⑦-⑧-|
67
①口④④ |--①-|
③口①口 |--②-|
口口口口 |③---|
③②②口 |④---|
68
口口口口 |①-②-|
口②①② |③-④-|
口①④①
③口口④
口口⑥⑥
⑦口⑧口
⑤⑧口口 |⑤-⑥-|
口口口口 |⑦-⑧-|
69
②①④④ |①-②-|
口①口② |--③-|
⑤⑤口口 |④---|
口③③口 |⑤---|
70
口口口口 |①---|
口口①口
口口口∨
①<口①
口③口口
∨口口口 |②---|
③口③口 |③---|
②口∧②
口口口口
口口口口
④口④口
口口口口 |④---|
71
口口①口 |①---|
口∨口口
口①口①
口口口∧
口口口口
③口>③ |②---|
∧②口② |③---|
口③口口
口口口口
④口口④
口口口口
口口口口 |④---|
72
①口口① |①---|
∧①①∧ |----|
口∧∧口
口口口口
②口口②
口②②口
口口口口 |----|
口口口口 |②---|
73
口①①口 |①---|
口∧∧口 |----|
口①①口
口∧∧口
口②②口
口口口口
口②②口 |----|
口口口口 |②---|
74
口口口口 |①---|
∨∨∨∨ |----|
|||| |----|
①①①① |----|
75
口口口口 |----|
口口口口 |----|
口口口口 |----|
口口口口 |----|
76
口口口口 |----|
口口口口 |----|
口口口口 |----|
口口口口 |----|
77
口口口口 |----|
口口口口 |----|
口口口口 |----|
口口口口 |----|
78
口口口口 |①---|
口口口口 |----|
口口口口 |----|
①①①①
不確定度: 0