INVISIBLE WORLD
SILKY F

ADVANCED

Level: 7
BPM: 128
Notes: 461

1
口口口口 |----|
口口口口 |----|
口口口口 |----|
口口口口 |----|
2
口②口口 |①-②-|
口①①③ |--③-|
⑤口口口 |--④-|
口口④口 |--⑤-|
3
口口②口 |①-②-|
③口口口 |--③-|
口①①⑤ |--④-|
口④口口 |--⑤-|
4
口②口口 |①-②-|
口①①③ |--③-|
⑤口口口 |--④-|
口口④口 |--⑤-|
5
口口②口 |①-②-|
③口口口 |--③-|
⑥①①⑦ |④-⑤-|
④口口⑤ |⑥-⑦-|
6
口口②③ |----|
①口②③ |①---|
口口口口 |②-③-|
口口口口 |----|
7
口口口口 |①---|
口④口口 |②-③-|
③②④口 |--④-|
③②口① |----|
8
口①③④ |①---|
②口③④ |②---|
口口⑤口 |③-④-|
口口①口 |---⑤|
9
④口口⑦ |①-②-|
口⑤⑥口 |③-④-|
口①口口 |⑤-⑥-|
③口口② |⑦---|
10
口②②口 |----|
①口口① |①---|
口③③口 |②---|
口口口口 |③---|
11
①②③④ |①②③④|
⑦⑥⑤口 |-⑤⑥⑦|
口口口口
口口口口

口口口口
口口⑭⑬
口⑩⑨⑧ |⑧⑨⑩-|
⑪⑫口口 |⑪⑫⑬⑭|
12
口⑥⑦口 |①---|
口①口口 |②③④⑤|
②③口口 |⑥-⑦-|
口口⑤④ |----|
13
口⑤⑥口 |①-②③|
⑦①①⑦ |④-⑤⑥|
②⑧⑨③ |⑦-⑧⑨|
口④④口 |----|
14
②③口口 |----|
①④⑤① |①---|
口口⑥⑦ |②③④⑤|
口口口⑧ |⑥⑦⑧-|
15
口口②② |①---|
口口口口 |②---|
口口口口
①①口口

口口口口
③⑤口④
口口⑥口 |③-④-|
口⑦口口 |⑤⑥⑦-|
16
①⑤⑥口 |----|
口口口② |①②③④|
③口⑧⑧ |--⑤⑥|
⑦⑦口④ |⑦-⑧-|
17
③口口④ |①-②-|
口①②口 |-③④⑤|
⑤口口⑥ |⑥---|
口口口⑦ |---⑦----|
18
口③③口 |①-②-|
口②②口 |--③-|
口口口口
①口口口

口口口口
口⑥⑥口
④口口⑤ |④-⑤-|
口口口口 |--⑥-|
19
①②口口 |①---|
口口③④ |②---|
口口口口 |③-④-|
口口⑤口 |--⑤-|
20
④⑤⑥⑦ |①-②-|
口口口口 |③---|
口②①口 |④-⑤-|
口③口口 |⑥-⑦-|
21
口口口口 |①---|
口口口口 |----|
口①①口 |----|
口口③② |--②③|
22
②口口口 |①---|
③口口口 |②-③-|
④⑥⑥口 |④-⑤-|
⑤①口口 |--⑥-|
23
口①②口 |①---|
口①②口 |②--③|
③口口③ |----|
口口口口 |----|
24
①口口② |①---|
口③④口 |②---|
口⑤⑥口 |③-④-|
⑦口口⑦ |⑤-⑥⑦|
25
口口口口 |----|
口口口口 |----|
口口口口 |----|
口口口口 |----|
26
口口②③ |----|
①口②③ |①---|
口口口口 |②-③-|
口口口口 |----|
27
口口口口 |①---|
口④口口 |②-③-|
③②④口 |--④-|
③②口① |----|
28
口①③④ |①---|
②口③④ |②---|
口口⑤口 |③-④-|
口口①口 |---⑤|
29
④口口⑦ |①-②-|
口⑤⑥口 |③-④-|
口①口口 |⑤-⑥-|
③口口② |⑦---|
30
口①②口 |①②③④|
口③④口 |⑤⑥⑦-|
⑤口口⑤
口⑥⑦口

口⑨⑩口
⑧口口⑧
口⑫⑬口 |⑧-⑨⑩|
⑪口口⑪ |⑪⑫⑬-|
31
口②②口 |----|
①口口① |①---|
口③③口 |②---|
口口口口 |③---|
32
口口口口 |①②-③|
②①③④ |④--⑤|
口口口口
⑤口口⑤

口⑨⑨口
口⑧⑧口
口⑦⑦口 |⑥-⑦-|
口⑥⑥口 |⑧-⑨-|
33
①口口③ |----|
②口口④ |①②③④|
口⑤⑥口 |⑤⑥-⑦|
⑦口口⑧ |⑧---|
34
口①口口 |①--②--③-|
口②⑥口 |④--⑤--⑥-|
口③⑤口
口口④口

口⑦⑦口
口口口口
口口口口 |-⑦--|
口口口口 |----|
35
口②②口 |----|
①口口① |①---|
口③③口 |②---|
口口口口 |③---|
36
①口口② |①---|
①③④② |②---|
口⑤⑥口 |③④⑤⑥|
⑦口口⑦ |⑦---|
37
①口口⑤ |①②-③|
②口⑦⑥ |④---|
口③⑧口 |⑤⑥⑦⑧|
口④⑨口 |⑨---|
38
①②口口 |①②-③|
口③④口 |④-⑤⑥|
⑦⑧⑤⑥ |----|
口口口口 |⑦-⑧-|
39
口⑤口口 |①---|
口④③② |--②-|
口口①口 |③-④-|
口口口口 |--⑤-|
40
口口②口 |①-②-|
④⑥口⑤ |③-④⑤|
口口口口 |----|
口③①口 |--⑥-|
41
口①③口 |①-②-|
口口②口 |③---|
口口口口
口口口口

口口⑦口
口⑥口口
口口⑤口 |④-⑤-|
口④口口 |⑥-⑦-|
42
口口口口 |①---|
①口口① |----|
①口口①
口口口口

口口口口
口口③②
口口口口 |----|
口口口口 |②-③-|
43
口口口口 |①---|
口①口口 |--②-|
②③④口 |③-④-|
口口⑤口 |--⑤-|
44
口①③口 |①-②-|
口口口口 |③-④⑤|
⑤口⑥④ |----|
口②口口 |--⑥-|
45
④口口口 |①-②-|
口口口⑤ |③---|
⑥②口口 |④-⑤-|
口③①⑦ |⑥-⑦-|
46
口口口口 |①---|
口①①口 |----|
口①①口 |----|
口口口口 |----|
47
⑥口⑤④ |①--②|
①②③口 |--③-|
口口口口 |④---|
口口口口 |⑤-⑥-|
48
口口口口 |①--②|
口口口口 |--③-|
④⑤⑥口 |④--⑤|
口③②① |--⑥-|
49
③②④⑤ |①---|
口①①口 |----|
口口口口 |②-③-|
口口口口 |④-⑤-|
50
④口口④ |①--②|
⑤③③⑤ |--③-|
口②②口 |④---|
口①①口 |⑤---|
51
口口口口 |①--②|
口口口口 |--③-|
口③②① |④---|
④⑤口⑥ |⑤-⑥-|
52
①②③口 |①--②|
口⑥⑤④ |--③-|
口口口口 |④--⑤|
口口口口 |--⑥-|
53
口④④口 |①--②|
③⑤⑤③ |--③-|
②口口② |----|
①口口① |④-⑤-|
54
口口口口 |①---|
④口口④ |②---|
③①①③ |③---|
②口口② |④---|
55
口①①口 |①-②-|
口口口口 |--③-|
④口口⑤ |--④-|
②口口③ |--⑤-|
56
④①①⑤ |①-②-|
②口口③ |--③-|
口口口口 |--④-|
口口口口 |--⑤-|
57
口口②③ |----|
①口②③ |①---|
口口口口 |②-③-|
口口口口 |----|
58
口⑤口口 |①---|
口④口口 |②-③-|
③②④口 |--④-|
③②⑤① |--⑤-|
59
口口②③ |----|
①口②③ |①---|
④口口口 |②-③-|
口口口④ |--④-|
60
③口口⑥ |①-②-|
口④⑤口 |--③-|
口①②口 |④-⑤-|
口②①口 |⑥---|
61
口口②③ |----|
①口②③ |①---|
口口口口 |②-③-|
口口口口 |----|
62
口口口口 |①---|
口④口口 |②-③-|
③②④口 |--④-|
③②口① |----|
63
口①③④ |①---|
②口③④ |②---|
口口⑤口 |③-④-|
口口①口 |---⑤|
64
口口口口 |①-②-|
口口口口 |③---|
口①口口
③口口②

口④④口
口⑤⑤口
口⑥⑥口 |--④--⑤--|
口⑦⑦口 |⑥--⑦----|


不确定度: 0

最終更新:2012年11月11日 16:32