crêpe suzette
kamome sano

BASIC

Level: 5
BPM: 202
Notes: 370

1
口口口口 |----|
口口口口 |----|
口口口口 |----|
口口口口 |----|
2
口口口口 |①---|
口口口③ |②---|
口②①口 |----|
口口口口 |③---|
3
口口口口 |----|
②口口口 |①---|
口①口口 |----|
口口口口 |②---|
4
口口口口 |----|
口口口口 |①---|
口口①口 |----|
口②②口 |②---|
5
④口口口 |①---|
③口口口 |②---|
②口口口 |③---|
①口口口 |④---|
6
口口口口 |①---|
口口口③ |②---|
口②①口 |----|
口口口口 |③---|
7
口口口口 |----|
②口口口 |①---|
口①口口 |----|
口口口口 |②---|
8
口口口口 |----|
口口口口 |①---|
口口①口 |----|
口②②口 |②---|
9
口口口口 |----|
②口口① |----|
口口口口 |①---|
口口口口 |②---|
10
口口口口 |①---|
口口③③ |②---|
口②①口 |----|
口口口口 |③---|
11
口口口口 |----|
②②口口 |①---|
口①口口 |----|
口口口口 |②---|
12
口口口口 |----|
口口口口 |①---|
口口①口 |----|
口②②口 |②---|
13
④口口口 |①---|
③口口口 |②---|
②口口口 |③---|
①口口口 |④---|
14
口口口口 |①---|
口口③③ |②---|
口②①口 |----|
口口口口 |③---|
15
口口口口 |----|
②②口口 |①---|
口①口口 |----|
口口口口 |②---|
16
口口口口 |----|
口口口口 |①---|
口口①口
口口口口



口 |--②-|
口 |--③-|
17
口口口口 |----|
口口口口 |----|
口口口口 |----|
口口口口 |----|
18
口口口口 |----|
口口口口 |----|
口口口口 |----|
口口口口 |----|
19
口口口口 |----|
口口口口 |----|
口口口口 |----|
口口口口 |----|
20
口口口口 |----|
口口口口 |----|
口口口口 |----|
口口口口 |----|
21
口口口口 |----|
口口口口 |----|
口口口口 |----|
口口口口 |----|
22
口口口口 |----|
口口口口 |----|
口口口口 |----|
口口口口 |----|
23
口口口口 |----|
口口口口 |----|
口口口口 |----|
口口口口 |----|
24
口 |①---|
口①①口 |----|
口口口口 |②---|
口②②口 |----|
25
口口口口 |①---|
口③③口 |②---|
②②①① |----|
口口口口 |③---|
26
①口口① |----|
口口口口 |①---|
口口口口 |----|
口②②口 |②---|
27
口口口口 |①---|
口③③口 |②---|
②②①① |----|
口口口口 |③---|
28
④②②④ |①---|
口口口口 |②---|
口口口口 |③---|
③①①③ |④---|
29
口口口口 |①---|
口③③口 |②---|
②②①① |----|
口口口口 |③---|
30
①口口① |----|
口口口口 |①---|
口口口口 |----|
口②②口 |②---|
31
口口口口 |----|
口口口① |①---|
口口口② |②---|
口口口③ |③---|
32
口②①口 |①-②-|
口④③口 |③-④-|
口口口口 |----|
口⑤⑤口 |⑤---|
33
口口口口 |①---|
口③③口 |②---|
②②①① |----|
口口口口 |③---|
34
①口口① |----|
口口口口 |①---|
口口口口 |----|
口②②口 |②---|
35
口口口口 |①---|
口③③口 |②---|
②②①① |----|
口口口口 |③---|
36
④②②④ |①---|
口口口口 |②---|
口口口口 |③---|
③①①③ |④---|
37
口口口口 |①---|
口③③口 |②---|
②②①① |----|
口口口口 |③---|
38
①口口① |----|
口口口口 |①---|
口口口口 |----|
口②②口 |②---|
39
口口口口 |----|
口口口① |①---|
口口口② |②---|
口口口③ |③---|
40
口②①口 |--①-|
口④③口 |②-③-|
口⑥⑤口 |④-⑤-|
口口口口 |⑥---|
41
口口口① |①---|
口口口② |②---|
口口口③ |③---|
口口口④ |④---|
42
口口④口 |①---|
口口③口 |②---|
口口②口 |③---|
口口①口 |④---|
43
口口口口 |①---|
①①口口 |----|
②②口口 |②---|
口口口口 |----|
44
①①口口 |①---|
口口口口 |----|
口口口口 |②---|
②②口口 |----|
45
口口口① |①---|
口口口② |②---|
口口口③ |③---|
口口口④ |④---|
46
口口④口 |①---|
口口③口 |②---|
口口②口 |③---|
口口①口 |④---|
47
口口口口 |①---|
①①口口 |----|
②②口口 |②---|
口口口口 |----|
48
①①口口 |①---|
口口②口 |--②-|
口③口口 |--③-|
口口④口 |--④-|
49
口口口口 |----|
口口口① |①---|
口口口② |②---|
口口口③ |③---|
50
口口④口 |①---|
口口③口 |②---|
口口②口 |③---|
口口①口 |④---|
51
口口口口 |①---|
①①口口 |----|
②②口口 |②---|
口口口口 |----|
52
①①口口 |①---|
口口口口 |----|
口口口口 |②---|
②②口口 |----|
53
口口口① |①---|
口口口② |②---|
口口口③ |③---|
口口口④ |④---|
54
口口④口 |①---|
口口③口 |②---|
口口②口 |③---|
口口①口 |④---|
55
口口口口 |①---|
①①口口 |----|
口②②口 |----|
口口口口 |--②-|
56
口口口口 |----|
②口口① |----|
口口口口 |①---|
口口口口 |②---|
57
口口口口 |①---|
口口口口 |----|
口②口口 |②---|
口口①口 |----|
58
口②口口 |①---|
口口①口 |----|
口口口口 |②---|
口口口口 |----|
59
口口口口 |①---|
口②口口 |----|
口①①口 |②---|
口口口口 |----|
60
口口口口 |①---|
口口口口 |----|
口口①口 |②---|
口②口口 |----|
61
口口口口 |①---|
口口口口 |----|
口②口口 |②---|
口口①口 |----|
62
口②口口 |①---|
口口①口 |----|
口口口口 |②---|
口口口口 |----|
63
①口口① |①---|
口②②口 |--②-|
③口口③ |----|
口口口口 |③---|
64
口口口口 |--①-|
②口口② |----|
口口口口 |②---|
口①①口 |----|
65
口①①口 |①---|
口口口口 |----|
口②口口 |----|
口口口口 |--②-|
66
口口口口 |----|
口口①口 |----|
口口口口 |①---|
口口口口 |----|
67
口口口口 |----|
口②口口 |①---|
口①①口 |----|
口口口口 |--②-|
68
口口口口 |----|
口口①口 |----|
口口口口 |①---|
口口口口 |----|
69
口口口口 |①---|
口口②口 |----|
口口口口 |----|
口①①口 |--②-|
70
口口口口 |----|
口口口口 |----|
口口①口 |①---|
口口口口 |----|
71
口口口口 |①---|
口①①口 |----|
口②口口 |----|
口口口口 |--②-|
72
口口口口 |----|
口①①口 |----|
口口口口 |①---|
口口口口 |----|
73
口①①口 |①---|
口口②口 |----|
口③口口 |--②-|
口口口口 |--③-|
74
口口口口 |----|
口①口口 |----|
口口口口 |①---|
口口口口 |----|
75
口口口口 |①---|
口④③口 |②---|
口②①口 |③---|
口口口口 |④---|
76
口口口口 |----|
口口口口 |----|
口口口口 |①---|
口①①口 |----|
77
口口口口 |①---|
口口口口 |----|
①口口① |----|
口②②口 |②---|
78
口口口口 |----|
①口口① |----|
口口口口 |①---|
口口口口 |----|
79
口口口口 |----|
口口口口 |①---|
口①①口 |----|
口口口口 |----|
80
口口 |①---|
口口 |----|
口口 |----|
口口 |----|
81
口口口口 |----|
口口口口 |----|
口口口口 |----|
口口口口 |----|
82
口 |①---|
口 |----|
口口口口 |----|
口口口口 |----|
83
|①---|
口口口口 |----|
口口口口 |----|
口口口口 |----|
84
口口口口 |①---|
口③③口 |②---|
口②①口 |----|
口口口口 |③---|
85
口口口口 |----|
②口口② |①---|
口口口口 |----|
口①①口 |②---|
86
口口口口 |----|
口口口口 |①---|
口①①口 |----|
口②②口 |②---|
87
④口口口 |①---|
③口口口 |②---|
②口口口 |③---|
①口口口 |④---|
88
口口口口 |①---|
口③③口 |②---|
口②①口 |----|
口口口口 |③---|
89
①口口① |----|
口口口口 |①---|
口②②口 |----|
口口口口 |②---|
90
口口口口 |①---|
③②①口 |②---|
口口口口 |③---|
口④④口 |④---|
91
④口口④ |①---|
口③③口 |②---|
②②①① |③---|
口口口口 |④---|
92
口②②口 |①---|
口③③口 |②---|
口口口口 |③---|
①④④① |④---|
93
口口口口 |①---|
④③③④ |②---|
②②①① |③---|
口口口口 |④---|
94
④②②④ |①---|
口口口口 |②---|
口口口口 |③---|
③①①③ |④---|
95
④口口④ |①---|
口③③口 |②---|
②②①① |③---|
口口口口 |④---|
96
口②②口 |①---|
④口口④ |②---|
口口口口 |③---|
①③③① |④---|
97
口口口口 |①---|
④①①④ |②---|
口②②口 |③---|
口③③口 |④---|
98
口口口口 |①---|
④①①④ |②---|
口②②口 |③---|
口③③口 |④---|
99
②口口② |①---|
口①①口 |②---|
口④③口 |③-④-|
口⑥⑤口 |⑤-⑥-|

不確定度: 0

最終更新:2017年08月13日 14:04