インフェルノ
9mm Parabellum Bullet

EXTREME

Level: 9
BPM: 195
Notes: 580

1
口口口口 |----|
口口口口 |----|
口口口口 |----|
口口口口
2
口口口口 |----|
口口口口 |----|
口口口口 |----|
口口口口
3
口④③口 |①-②-|
②口口① |--③-|
口口口口 |④---|
口口口口
4
③口口③ |①---|
口②②口 |②---|
口①①口 |③---|
口口口口
5
口口口口 |①-②-|
口口口口 |--③-|
④口口③ |④---|
口②①口
6
③口口③ |①---|
口②②口 |②---|
口①①口 |③---|
口口口口
7
口④③口 |①-②-|
②口口① |--③-|
④口口③ |④---|
口②①口
8
③口口③ |①---|
口②②口 |②---|
口①①口 |③---|
口口口口
9
口口口口 |①-②-|
口口口口 |--③-|
②④③① |④---|
④②①③
10
口口口口 |①---|
口①①口 |②---|
③口口③ |③---|
口②②口
11
①口口③ |①---|
口口口口 |②---|
口口口口 |③---|
②口口口
12
口口口口 |①---|
口③口口 |②---|
口口②口 |③---|
口口口①
13
口口口① |①---|
口口②口 |--②-|
③口口口 |--③-|
口口口口
14
口①①口 |①---|
口口口② |----|
口口口口 |②---|
口口②口
15
⑤口口口 |①-②-|
①③口口 |③-④-|
口⑤②④ |⑤-⑥-|
③①口⑥
16
口①口③ |①-②-|
⑤口④口 |③-④-|
①口⑥口 |⑤-⑥-|
口⑤②口
17
③⑤口⑥ |①-②-|
口①口口 |③-④-|
⑤③口② |⑤-⑥-|
①口④口
18
②口口口 |①---|
①②口口 |----|
口口②口 |②---|
口①口②
19
⑥口口① |①-②-|
②口①⑤ |③-④-|
④①口③ |⑤-⑥-|
①口口口
20
口口口③ |①-②-|
口⑥⑤口 |③-④-|
口②口口 |⑤-⑥-|
④口①①
21
口④③口 |①-②-|
⑥口口⑤ |③-④-|
②口①① |⑤-⑥-|
口口口口
22
口口口① |①---|
口口①口 |----|
口口口口 |----|
口口口口
23
②口口③ |①-②-|
口④⑤口 |③-④-|
口口①口 |⑤-⑥-|
⑥口口①
24
⑥口③口 |①-②-|
②口口口 |③-④-|
口④口① |⑤-⑥-|
口口①⑤
25
口口口① |①-②-|
⑥口①口 |③-④-|
②口⑤③ |⑤-⑥-|
④口口口
26
口口①口 |①---|
口口口① |----|
口口口口 |----|
口口口口
27
口口口② |①---|
口口③口 |②---|
口口口口 |③---|
①①口口
28
④口③③ |①---|
口口口口 |②-③-|
①④口① |--④-|
②口口口
29
口口③口 |①---|
口口①口 |--②-|
口口口③ |--③-|
②口口①
30
①口口口 |①---|
口口口口 |----|
口①③口 |②-③-|
口口②口
31
口口①口 |①---|
口口口① |----|
口③口口 |②-③-|
口②口口
32
口①口口 |①---|
①口口② |----|
②口口口 |②---|
口口口口
33
①②③口 |①---|
④口口口 |②-③-|
口口口④ |--④-|
口③②①
34
口口口① |①---|
口口口口 |----|
口口口口 |----|
①口口口
35
口口④口 |①-②-|
③口口口 |③---|
②口口口 |--④-|
口①口口
36
口口口口 |①-②-|
口口口① |③---|
口口口② |----|
口口口③
37
口③④口 |①-②-|
②口口口 |③---|
①口口口 |--④-|
口口口口
38
口口口口 |①-②-|
⑤口口① |③---|
④口口② |④-⑤-|
口口口③
39
①口口口 |①---|
口口口③ |----|
口口口② |②-③-|
口口口口
40
口口口① |①---|
口口口口 |----|
口口口口 |②---|
口②口口
41
③口口④ |①---|
口口①口 |②-③-|
口口②口 |--④-|
口口口口
42
口①①口 |①---|
口②口口 |②---|
口口③口 |③---|
口口口口
43
口口⑤口 |①---|
口口口④ |②-③-|
口①口③ |④-⑤-|
口口②口
44
①口口② |①---|
口①②口 |②---|
③口口口 |--③-|
口口口口
45
②口口口 |①---|
口口口口 |--②-|
口①口口 |--③-|
口口③口
46
口口口口 |①---|
口口口① |----|
口口口口 |----|
口口口口
47
口⑤口口 |①---|
④口口口 |②-③-|
③口①口 |④-⑤-|
口②口口
48
②口口① |①---|
口②①口 |②---|
口口③口 |--③-|
口口口口
49
③①口口 |①---|
口③口口 |--②-|
口口口口 |--③-|
口②②口
50
口口口① |①---|
口口①口 |----|
口口口口 |----|
口口口口
51
①口口③ |①-②-|
口④⑤口 |③-④-|
⑥①③口 |⑤-⑥-|
口口口②
52
口③③口 |①-②-|
口口口① |③-④-|
口④口⑥ |⑤-⑥-|
②⑤⑤口
53
①⑥口① |①-②-|
口③④口 |③-④-|
口⑤②口 |⑤-⑥-|
③口口④
54
口口口⑤ |①-②-|
④口口① |③-④-|
口口口口 |⑤-⑥-|
⑥②③口
55
口口口口 |①-②-|
口①①② |③-④-|
口③③④ |⑤-⑥-|
口⑤⑤⑥
56
①⑥口① |①-②-|
③②④③ |③-④-|
⑤口口⑤ |⑤-⑥-|
口口口口
57
③口②④ |①-②-|
⑤口口口 |③-④-|
口③④⑥ |⑤-⑥-|
①口⑥①
58
口②口口 |①-②-|
口③④口 |③-④-|
②⑥口口 |⑤-⑥-|
口①口⑤
59
口口⑥口 |①-②-|
②口口③ |③-④-|
④口口① |⑤-⑥-|
口⑤口口
60
⑥②口口 |①-②-|
口口④口 |③-④-|
口③口口 |⑤-⑥-|
口口①⑤
61
口③①口 |①-②-|
②口口④ |--③-|
④口口② |④---|
口①③口
62
②口口① |①---|
口②①口 |②---|
口①②口 |----|
①口口②
63
口③①③ |①---|
②口口① |②---|
②口③① |③---|
口②口口
64
口口②口 |①---|
口①③② |②---|
③②口口 |③---|
①③①口
65
①③口③ |①---|
①口口口 |--②-|
口口口① |--③-|
②口②①
66
口口口口 |①---|
口①①② |----|
口①①② |②---|
口口口口
67
②口口④ |①-②-|
口⑤⑤口 |③-④-|
口③③口 |⑤-⑥-|
①①口⑥
68
③口⑤口 |①-②-|
①口口① |③-④-|
口④口⑤ |⑤-⑥-|
⑥口②口
69
⑤口口① |①-②-|
口③③口 |③-④-|
②⑤①⑥ |⑤-⑥-|
口口④口
70
口①①口 |①---|
口口口口 |----|
口口口口 |----|
口口口口
71
③⑤⑤① |①-②-|
口口④口 |③-④-|
⑥③口① |⑤-⑥-|
口②口口
72
⑤口口口 |①-②-|
②口⑥① |③-④-|
口④口⑤ |⑤-⑥-|
③③口①
73
口②⑥① |①-②-|
④④口⑥ |③-④-|
①⑤口口 |⑤-⑥-|
口口口③
74
②③口② |①---|
口口口口 |----|
口口口口 |②-③-|
口①①口
75
口口②口 |①-②-|
口①①口 |③-④-|
③④⑥③ |⑤-⑥-|
口⑤⑤口
76
①口口① |①---|
口口口口 |----|
②③口② |②-③-|
口口口口
77
口③③口 |①-②-|
①口口① |③-④-|
口口②口 |⑤-⑥-|
⑤⑥④⑤
78
①口口① |①---|
口口口口 |----|
口口口口 |----|
口口口口
79
②口口② |①---|
③口口③ |②-③-|
④口口④ |④-⑤-|
⑤①①⑤
80
口①①口 |①---|
口口口口 |②---|
口②②口 |----|
口口口口
81
⑤口口⑤ |①---|
④①①④ |②-③-|
③口口③ |④-⑤-|
②口口②
82
口②②口 |①---|
口口口口 |②---|
口口口口 |----|
口①①口
83
口口③① |①---|
②口口口 |②---|
口口口② |③---|
①③口口
84
①③口③ |①---|
口口③口 |②---|
口②口口 |③---|
②口②①
85
②③口口 |①---|
口②口① |--②-|
①口②口 |--③-|
口口③②
86
口口口① |①---|
口口①口 |----|
口①口口 |----|
①口口口
87
②口③⑤ |①-②-|
口口口① |③-④-|
⑥④口口 |⑤-⑥-|
口口①口
88
⑥口口口 |①-②-|
④口①⑤ |③-④-|
口口口口 |⑤-⑥-|
②口③①
89
口口④② |①-②-|
口口口口 |③-④-|
③①①口 |⑤-⑥-|
⑤口⑥口
90
①口口口 |①---|
口①口口 |----|
口口口口 |----|
口口口口
91
口③口口 |①-②-|
①口口⑥ |③-④-|
⑤口口② |⑤-⑥-|
口①④口
92
口口口② |①-②-|
⑤①口口 |③-④-|
口口⑥口 |⑤-⑥-|
①③口④
93
①⑤口口 |①-②-|
口口④② |③-④-|
口①口⑥ |⑤-⑥-|
③口口口
94
口口口口 |①---|
口口口口 |----|
①口口口 |----|
口①口口
95
④口口③ |①-②-|
口②①口 |--③-|
④口口③ |④---|
口②①口
96
口②②口 |①---|
口口口口 |②---|
口①①口 |③---|
③③口口
97
②④口⑥ |①-②-|
口⑤①③ |③-④-|
④②⑤口 |⑤-⑥-|
⑥口③①
98
口口①口 |①---|
①口口口 |----|
口口口① |----|
口①口口

不確定度: 0

最終更新:2017年08月03日 01:59