Dreamland。feat. RED RICE(from 湘南乃風), CICO(from BENNIE K)
ハジ→

BASIC

Level: 3
BPM: 141
Notes: 222

1
口口口口 |----|
口口口口 |----|
口口口口 |----|
口口口口 |----|
2
口口口口 |①---|
口②口口 |----|
口①口口 |②---|
口口口口 |----|
3
口口口口 |①---|
口口①口 |----|
口口②口 |②---|
口口口口 |----|
4
口口口口 |①---|
口②口口 |----|
口①口口 |②---|
口口口口 |----|
5
口口口口 |①---|
口口①口 |----|
口口②口 |②---|
口口口口 |----|
6
口口口口 |①---|
口口口口 |②---|
②④口口 |③---|
①③口口 |④---|
7
口口口口 |①---|
口口口口 |②---|
口口②④ |③---|
口口①③ |④---|
8
口①②口 |①---|
口③④口 |②---|
口口口口 |③---|
口口口口 |④---|
9
口口口口 |①---|
口口口口 |②---|
口①②口 |③---|
口③④口 |④---|
10
口口口口 |①---|
①口口① |②---|
口②口口
口口口口

口口口口
④④口口
口口口口 |③---|
口③口口 |④---|
11
口口口口 |----|
口口①口 |①---|
口口②口 |②---|
口口③口 |③---|
12
②口口② |①---|
口口口口 |--②-|
口口口口 |----|
①口口① |----|
13
口①②口 |①---|
口③④口 |②---|
口口口口 |③---|
口口口口 |④---|
14
口口口口 |----|
③③口口 |①---|
口①口口 |②---|
口②口口 |③---|
15
口口口口 |----|
口口①口 |①---|
口口②口 |②---|
口口③口 |③---|
16
②口口② |①---|
口口口口 |--②-|
口口口口 |----|
①口口① |----|
17
口口口口 |①---|
口①口④ |②---|
口②口③ |③---|
口口口口 |④---|
18
口口①① |①---|
②③口口 |②---|
口口口口 |③---|
口口口口 |----|
19
口口口口 |①---|
口口口口 |②---|
口③②① |③---|
口口口口 |----|
20
口口口口 |----|
口口②① |①---|
口口口口 |②---|
口口口口 |----|
21
口口口口 |①---|
口口口口 |②---|
①②③口 |③---|
口口口口 |----|
22
口口口口 |①---|
③口口口 |②---|
②口口口 |③---|
①口口口 |----|
23
口口口③ |①---|
口口口② |②---|
口口口① |③---|
口口口口 |----|
24
口①口口 |①---|
口②口口 |②---|
口③口口 |③---|
口口口口 |----|
25
口口①口 |①---|
口口②口 |②---|
口口③口 |③---|
口口④口 |④---|
26
①②口口 |----|
口口口口 |----|
口口口口 |①---|
口口口口 |②---|
27
口口①② |①---|
口口④③ |②---|
口口口口 |③---|
口口口口 |④---|
28
口口口口 |①---|
口①口口 |----|
口口口口 |②---|
口口③② |③---|
29
口口口口 |①---|
口口口口 |②---|
③④口口 |③---|
②①口口 |④---|
30
口口③② |①---|
口口口口 |----|
口口①口 |②---|
口口口口 |③---|
31
②①口口 |①---|
③口口口 |②---|
④口口口 |③---|
口口口口 |④---|
32
口口口口 |①---|
口口口口 |②---|
口口口口 |③---|
①②③④ |④---|
33
口口口口 |①---|
口④③② |②---|
口口口① |③---|
口口口口 |④---|
34
②①①② |①---|
口口口口 |----|
口口口口 |②---|
口口口口 |----|
35
③③②② |①---|
①口口① |----|
口口口口 |②---|
口口口口 |③---|
36
口口口口 |----|
①口口① |----|
口口口口 |①---|
口口口口 |----|
37
③③②② |①---|
口口口口 |----|
①口口① |②---|
口口口口 |③---|
38
口口口口 |----|
口口口口 |----|
①口口① |①---|
口口口口 |----|
39
②②②② |①---|
口口口口 |--②-|
口口口口 |----|
①口口① |----|
40
口①②口 |①---|
口③④口 |②---|
口口口口 |③---|
口口口口 |④---|
41
口口口口 |①---|
口口口口 |②---|
口①②口 |③---|
口③④口 |④---|
42
口口口口 |①---|
①口口① |②---|
口②口口
口口口口

口口口口
④④口口
口口口口 |③---|
口③口口 |④---|
43
口口口口 |----|
口口①口 |①---|
口口②口 |②---|
口口③口 |③---|
44
②口口② |①---|
口口口口 |--②-|
口口口口 |----|
①口口① |----|
45
口①②口 |①---|
口③④口 |②---|
口口口口 |③---|
口口口口 |④---|
46
口口口口 |----|
③③口口 |①---|
口①口口 |②---|
口②口口 |③---|
47
口口口口 |----|
口口①口 |①---|
口口②口 |②---|
口口③口 |③---|
48
②口口② |①---|
口口口口 |--②-|
口口口口 |----|
①口口① |----|
49
口口口口 |①---|
口①口④ |②---|
口②口③ |③---|
口口口口 |④---|
50
口口①① |①---|
口口口口 |----|
口口口口 |----|
口口口口 |----|
51
④口口口 |①---|
③口口口 |②---|
②口口口 |③---|
①口口口 |④---|
52
口口口口 |--①-|
口①口口 |-②--|
口口②口 |③---|
口③口口 |----|
53
口口口④ |①---|
口口口③ |②---|
口口口② |③---|
口口口① |④---|
54
口口口口 |--①-|
口口①口 |-②--|
④②口④ |③---|
口口③口 |④---|
55
①③口口 |①---|
②④口口 |②---|
口口口口 |③---|
口口口口 |④---|
56
口口①③ |①---|
口口②④ |②---|
口口口口 |③---|
口口口口 |④---|
57
口口口口 |①---|
口口口口 |②---|
②④口口 |③---|
①③口口 |④---|
58
口口口口 |①---|
口④④口 |②---|
口口②口 |③---|
口口①③ |④---|
59
①②口口 |①---|
口口④③ |②---|
口口口口 |③---|
口口口口 |④---|
60
口口口口 |----|
口口口口 |----|
口①②口 |①---|
口口口口 |②---|
61
口口口口 |----|
口口口口 |----|
口口口口 |①---|
口①②口 |②---|
62
③口口③ |①---|
口①②口 |②---|
口口口口 |③---|
口口口口 |----|

不確定度: 0

最終更新:2017年08月03日 01:44