にゃんのパレードマーチ♪
DJ TOTTO feat.にゃん

BASIC

Level: 4
BPM: 162
Notes: 246

1
口口口口 |----|
口口口口 |----|
口口口口 |----|
口口口口 |----|
2
①口口口 |①---|
口口②口 |----|
口口口口 |----|
口口口口 |②---|
3
口口口口 |①---|
口①口口 |----|
口口②口 |②---|
口口口口 |----|
4
口口口口 |①---|
口口口口 |----|
口口口口 |②---|
口①②口 |----|
5
口口口口 |①---|
①口口口 |----|
口②口口 |②---|
口口口口 |----|
6
口口口口 |①---|
口口口口 |----|
口口口① |②---|
口口②口 |----|
7
口②口口 |①---|
①口口口 |----|
口口口口 |②---|
口口口口 |----|
8
口口①口 |①---|
口口口② |----|
口口口口 |②---|
口口口口 |----|
9
口口口口 |①---|
口口口口 |----|
口②①口 |②---|
口口口口 |----|
10
口口口口 |①---|
口口口口 |----|
口口口口 |②---|
口②①口 |----|
11
口口口口 |①---|
口①①口 |----|
口②②口 |②---|
口口口口 |----|
12
①口口① |①---|
口口口口 |----|
口口口口 |②---|
②口口② |----|
13
口口口口 |①---|
口①①口 |----|
口①①口 |----|
口口口口 |----|
14
口口口口 |①---|
①口口① |----|
①口口① |----|
口口口口 |----|
15
口口④口 |①---|
口③口口 |②---|
口口②口 |③---|
口①口口 |④---|
16
①口口口 |①---|
②口口口 |②---|
③口口口 |③---|
口口口口 |----|
17
口④口口 |①---|
口口③口 |②---|
口②口口 |③---|
口口①口 |④---|
18
口口口① |①---|
口口口② |②---|
口口口③ |③---|
口口口口 |----|
19
口口口④ |①---|
③口口口 |②---|
口口口② |③---|
①口口口 |④---|
20
口①口口 |①---|
口②口口 |②---|
口③口口 |③---|
口口口口 |----|
21
④口口口 |①---|
口口口③ |②---|
②口口口 |③---|
口口口① |④---|
22
口口①口 |①---|
口口②口 |②---|
口口③口 |③---|
口口口口 |----|
23
③③口口 |①---|
口口口② |②---|
口口口④ |③---|
①①口口 |④---|
24
口口①口 |①---|
口口②口 |②---|
口口③口 |③---|
口口口口 |----|
25
口口③③ |①---|
②口口口 |②---|
④口口口 |③---|
口口①① |④---|
26
口①口口 |①---|
口②口口 |②---|
口③口口 |③---|
口口口口 |----|
27
③③口口 |①---|
口口口② |②---|
口口口④ |③---|
①①口口 |④---|
28
口口①口 |①---|
口口②口 |②---|
口口③口 |③---|
口口口口 |----|
29
口口口④ |①---|
③口口口 |②---|
口口口② |③---|
①口口口 |④---|
30
口①①口 |①---|
口②②口 |②---|
口③③口 |③---|
口口口口 |----|
31
口口口口 |①---|
口口口口 |----|
②口口口 |②---|
①口口口 |----|
32
②口口口 |①---|
①口口口 |----|
口口口口 |②---|
口口口口 |----|
33
口口口口 |①---|
口口口口 |----|
口口口② |②---|
口口口① |----|
34
口口口② |①---|
口口口① |----|
口口口口 |②---|
口口口口 |----|
35
口口口口 |①---|
口口口口 |----|
口②口口 |②---|
口①口口 |----|
36
口②口口 |①---|
口①口口 |----|
口口口口 |②---|
口口口口 |----|
37
口口口口 |①---|
口口口口 |----|
口口②口 |②---|
口口①口 |----|
38
口口②口 |①---|
口口①口 |----|
口口口口 |②---|
口口口口 |----|
39
口口口口 |①---|
口口口口 |②---|
口口口口 |③---|
①②③④ |④---|
40
口口口口 |①---|
口口口口 |②---|
①②③④ |③---|
口口口口 |④---|
41
口口口口 |①---|
①②③④ |②---|
口口口口 |③---|
口口口口 |④---|
42
①②③口 |①---|
口口口口 |②---|
口口口口 |③---|
口口口口 |----|
43
口口口口 |①---|
口口口口 |②---|
口口口口 |③---|
④③②① |④---|
44
口口口口 |①---|
口口口口 |②---|
④③②① |③---|
口口口口 |④---|
45
口口口口 |①---|
④③②① |②---|
口口口口 |③---|
口口口口 |④---|
46
口③②① |①---|
口口口口 |②---|
口口口口 |③---|
口口口口 |----|
47
口口口口 |①---|
口①口口 |----|
口口②口 |②---|
口口口口 |----|
48
①口口口 |①---|
②口口口 |②---|
③口口口 |③---|
口口口口 |----|
49
口口口口 |①---|
口口①口 |----|
口②口口 |②---|
口口口口 |----|
50
口口口① |①---|
口口口② |②---|
口口口③ |③---|
口口口口 |----|
51
口口口口 |①---|
口①口口 |----|
口口②口 |②---|
口口口口 |----|
52
①口口口 |①---|
②口口口 |②---|
③口口口 |③---|
口口口口 |----|
53
口口口口 |①---|
口口①口 |----|
口②口口 |②---|
口口口口 |----|
54
口口口① |①---|
口口口② |②---|
口口口③ |③---|
口口口口 |----|
55
口口口口 |①---|
口口口口 |----|
口口口口 |----|
口①①口 |----|
56
口口口口 |①---|
口口口口 |----|
口①①口 |----|
口口口口 |----|
57
口口口口 |①---|
口①①口 |----|
口口口口 |----|
口口口口 |----|
58
口①①口 |①---|
口口口口 |----|
口口口口 |----|
口口口口 |----|
59
①口口② |①---|
③口口④ |②---|
口口口口 |③---|
口口口口 |④---|
60
口口口口 |①---|
口口口口 |②---|
①口口② |③---|
③口口口 |----|
61
口④口口 |①---|
口口③口 |②---|
口②口口 |③---|
口口①口 |④---|
62
口口口① |①---|
口口口② |②---|
口口口③ |③---|
口口口口 |----|
63
口口④口 |①---|
口③口口 |②---|
口口②口 |③---|
口①口口 |④---|
64
①口口口 |①---|
②口口口 |②---|
③口口口 |③---|
口口口口 |----|
65
④口口口 |①---|
口口口③ |②---|
②口口口 |③---|
口口口① |④---|
66
口口①口 |①---|
口口②口 |②---|
口口③口 |③---|
口口口口 |----|
67
口口口④ |①---|
③口口口 |②---|
口口口② |③---|
①口口口 |④---|
68
口①口口 |①---|
口②口口 |②---|
口③口口 |③---|
口口口口 |----|
69
口口③③ |①---|
②口口口 |②---|
④口口口 |③---|
口口①① |④---|
70
口①口口 |①---|
口②口口 |②---|
口③口口 |③---|
口口口口 |----|
71
③③口口 |①---|
口口口② |②---|
口口口④ |③---|
①①口口 |④---|
72
口口①口 |①---|
口口②口 |②---|
口口③口 |③---|
口口口口 |----|
73
口口③③ |①---|
②口口口 |②---|
④口口口 |③---|
口口①① |④---|
74
口①口口 |①---|
口②口口 |②---|
口③口口 |③---|
口口口口 |----|
75
④口口口 |①---|
③口口口 |②---|
②口口口 |③---|
①口口口 |④---|
76
口①②③ |①---|
口④④口 |②---|
口④④口 |③---|
口口口口 |④---|

不確定度: 0

最終更新:2017年08月03日 01:21