ワタリドリ
[Alexandros]

BASIC

Level: 3
BPM: 135
Notes: 219

1
口口口口 |----|
口口口口 |----|
口口口口 |----|
口口口口 |----|
2
口口口口 |①---|
口口口口 |----|
口口②口 |②---|
①口口口 |----|
3
口口口口 |①---|
口口口② |----|
口①口口 |②---|
口口口口 |----|
4
口口②口 |①---|
①口口口 |----|
口口口口 |②---|
口口口口 |----|
5
口口口② |①---|
口①口口 |----|
口口口口 |②---|
口口口口 |----|
6
口口④口 |①---|
口③口口 |②---|
口口②口 |③---|
①①口口 |④---|
7
口①口口 |①---|
口口②口 |②---|
口③口口 |③---|
口口④口 |④---|
8
口口口④ |①---|
③口口口 |②---|
口口口② |③---|
①口口口 |④---|
9
①口口口 |①---|
口口口② |②---|
③口口口 |③---|
口口口口 |----|
10
口口④口 |①---|
口③口口 |②---|
口口②口 |③---|
口①口口 |④---|
11
口①口口 |①---|
口口②口 |②---|
口③口口 |③---|
口口④口 |④---|
12
口口口④ |①---|
③口口口 |②---|
口口口② |③---|
①口口口 |④---|
13
①口口口 |①---|
口口口② |②---|
③口口口 |③---|
口口口④ |④---|
14
口口②② |①---|
口口口口 |----|
口口①口 |②---|
口口口口 |----|
15
②②口口 |①---|
口口口口 |----|
口①口口 |②---|
口口口口 |----|
16
口口②② |①---|
口口口口 |----|
口口①口 |②---|
口口口口 |----|
17
口口口口 |①---|
口①①口 |----|
②②口口 |②---|
口口口口 |----|
18
口口②② |①---|
口口口口 |----|
口口①口 |②---|
口口口口 |----|
19
②②口口 |①---|
口口口口 |----|
口①口口 |②---|
口口口口 |----|
20
口口①① |①---|
②②口口 |----|
口口口口 |②---|
口口口口 |----|
21
口口口口 |①---|
口口口口 |----|
口口①① |----|
口②口口 |②---|
22
口口口口 |①---|
口④口口 |②---|
①②③口 |③---|
口口口口 |④---|
23
口口口口 |①---|
口口口口 |②---|
口③②① |③---|
口口④口 |④---|
24
口口口口 |①---|
口①口口 |----|
②口口口 |②---|
口口口口 |----|
25
口口口口 |①---|
口口口口 |----|
口口口② |----|
口①口口 |②---|
26
口口口口 |①---|
口③口④ |②---|
口②口口 |③---|
口①口口 |④---|
27
口口④口 |①---|
口口③口 |②---|
口口②口 |③---|
口口①口 |④---|
28
口口口口 |①---|
①①口口 |----|
口口②② |②---|
口口口口 |----|
29
口口口口 |①---|
口口口口 |----|
①①口口
口口口口

口口口口
口口口口
口③③口 |②---|
口②②口 |③---|
30
①①①① |①---|
口②③口 |②---|
口④口口 |③---|
口口口口 |④---|
31
口口口口 |①---|
口口口口 |----|
口口①口 |----|
②口口口 |②---|
32
④口口④ |①---|
口口③口 |②---|
口②口口 |③---|
口口①口 |④---|
33
口口口口 |①---|
①口口① |②---|
②④④② |③---|
口③③口 |④---|
34
①①①① |①---|
口②③口 |②---|
口④口口 |③---|
口口口口 |④---|
35
口口口口 |①---|
口口口口 |----|
口口①口 |----|
口口口② |②---|
36
④口口④ |①---|
口③口口 |②---|
口口②口 |③---|
口①口口 |④---|
37
口口口口 |①---|
①口口① |----|
口②②口 |②---|
口口口口 |----|
38
口口②① |①---|
口口②① |----|
口口口口 |②---|
口口口口 |----|
39
②①口口 |①---|
②①口口 |----|
口口口口 |②---|
口口口口 |----|
40
口口口口 |①---|
口口口口 |----|
口①①口 |----|
口②口口 |②---|
41
口②②口 |①---|
口口口口 |----|
口口①口 |②---|
口口口口 |----|
42
①②口口 |①---|
①②口口 |----|
口口口口 |②---|
口口口口 |----|
43
口口①② |①---|
口口①② |----|
口口口口 |②---|
口口口口 |----|
44
口口口口 |①---|
口口口口 |----|
口①①口 |----|
口口②口 |②---|
45
口口口口 |①---|
口①①口 |----|
口②②口 |②---|
口口口口 |----|
46
①①①① |①---|
口口口口 |----|
口口口口 |----|
口口口口 |----|
47
①②口口 |①---|
口③④口 |②---|
口口口口 |③---|
口口口口 |④---|
48
口口口口 |①---|
口口口口 |②---|
口口①② |③---|
口口④③ |④---|
49
口口口口 |①---|
口口口口 |②---|
③口口口 |③---|
②①口口 |----|
50
口口口口 |①---|
口口③④ |②---|
口①②口 |③---|
口口口口 |④---|
51
口口②① |①---|
口④③口 |②---|
口口口口 |③---|
口口口口 |④---|
52
口口口口 |①---|
口口口口 |②---|
②①口口 |③---|
③④口口 |④---|
53
口口口口 |①---|
口口口口 |②---|
口口口③ |③---|
口口①② |----|
54
口口口口 |①---|
②口口② |--②-|
口③③口 |----|
口①①口 |③---|
55
①②②① |--①-|
口口口口 |----|
口口口口 |②---|
口口口口
56
口口口口 |①---|
②口口② |--②-|
口③③口 |----|
口①①口 |③---|
57
①口口① |--①-|
口②口口 |----|
口口③口 |②---|
口口口口 |③---|
58
口口口口 |①---|
①口口① |----|
①口口① |----|
口口口口 |----|

不確定度: 0

最終更新:2017年07月30日 19:23