ワタリドリ
[Alexandros]

ADVANCED

Level: 6
BPM: 135
Notes: 360

1
口口口口 |----|
口口口口 |----|
口口口口 |----|
口口口口 |----|
2
②口口③ |①---|
口口口口 |②---|
口口口口 |③---|
①口口④ |④---|
3
口口③口 |①---|
②口口口 |②---|
口口口④ |③---|
口①口口 |④---|
4
口③口口 |①---|
口口口④ |②---|
②口口口 |③---|
口口①口 |④---|
5
③口口口 |①---|
口口口口 |②---|
口口口口 |③---|
②口口① |----|
6
口口口口 |①---|
口④③② |②-③-|
⑤⑥口口 |④---|
①口口口 |⑤-⑥-|
7
口④③② |①---|
口口口口 |②-③-|
口口①口 |④---|
⑤⑥口口 |⑤-⑥-|
8
口口口口 |①---|
口④③② |②-③-|
⑤⑥口口 |④---|
口口①口 |⑤-⑥-|
9
口④③② |①---|
口口口口 |②-③-|
口口①口 |④---|
口口口口 |----|
10
口口口口 |①---|
口②③④ |②-③-|
口⑥⑤口 |④---|
口口口① |⑤-⑥-|
11
口②③④ |①---|
口口口口 |②-③-|
①口口口 |④---|
口⑥⑤口 |⑤-⑥-|
12
口口口口 |①---|
口②③④ |②-③-|
口⑥⑤口 |④---|
①口口口 |⑤-⑥-|
13
口②③④ |①---|
⑦口口口 |②-③-|
①⑥口口 |④-⑤-|
口口⑤口 |⑥-⑦-|
14
口③①口 |①--②|
⑤口口⑥ |--③-|
口口②口 |--④-|
口④口口 |⑤-⑥-|
15
①口③口 |①--②|
⑥口口⑤ |--③-|
口②口口 |--④-|
口口④口 |⑤-⑥-|
16
口③口① |①--②|
口口④口 |--③-|
口口②口 |--④-|
⑤口口口 |--⑤-|
17
口口口口 |①---|
④口口口 |--②-|
口②③口 |③---|
口口口① |--④-|
18
口③口① |①--②|
⑤口口⑥ |--③-|
口口②口 |--④-|
口④口口 |⑤-⑥-|
19
口④③③ |①--②|
口口⑤口 |--③-|
口②口⑥ |--④-|
①口口口 |⑤-⑥-|
20
①口口④ |①--②|
口③口口 |--③-|
②口口⑤ |④--⑤|
口⑥口口 |--⑥-|
21
口口④④ |①---|
口口口口 |----|
口③口口 |--②-|
②口①口 |③-④-|
22
口①口口 |--①-|
口口②口 |②-③-|
口口口③
口口口口

⑥⑥口口
口口口口
口口⑤口 |--④-|
口口口④ |⑤-⑥-|
23
口口①口 |--①-|
口②口口 |②-③-|
③⑥⑤口 |--④-|
口口口④ |⑤-⑥-|
24
口口口④ |①--②|
②口⑤口 |--③-|
口⑥口口 |④--⑤|
①③口口 |--⑥-|
25
口口口口 |①---|
口口口④ |----|
口口口③ |--②-|
口口①② |③-④-|
26
①口口口 |--①-|
②口⑥口 |②-③-|
③口⑤口 |--④-|
口口④口 |⑤-⑥-|
27
口①口口 |--①-|
⑤②口口 |②-③-|
口③口口 |--④-|
口口口④ |--⑤-|
28
口口口口 |①---|
口口口口 |----|
口②②口 |②---|
口口①口 |----|
29
口口口口 |①---|
①③③① |----|
口口口口 |②---|
②口口② |③---|
30
①①①① |①--②|
④口口④ |--③-|
⑤③③⑤ |④--⑤|
⑥②②⑥ |--⑥-|
31
口口口③ |①---|
口①①口 |----|
口口口口 |--②-|
②口口口 |--③-|
32
口口口口 |①--②|
④③口⑤ |--③-|
口口②口 |--④-|
口口口① |--⑤-|
33
①①①① |①---|
口④④口 |②---|
②②②② |③---|
③口口③ |④---|
34
①①①① |①--②|
④口口④ |--③-|
⑤③③⑤ |④--⑤|
⑥②②⑥ |--⑥-|
35
口口口③ |①---|
口①①口 |----|
口口口口 |--②-|
②口口口 |--③-|
36
口口口口 |①--②|
④③口⑤ |--③-|
口口②口 |--④-|
口口口① |--⑤-|
37
①①①① |①---|
口口口口 |--②-|
④②③口 |③---|
口②③口 |--④-|
38
①口口① |①---|
②口口② |--②-|
③口口③ |----|
口口口口 |③---|
39
口④④口 |----|
③③口口 |①-②-|
口口②② |③---|
①①口口 |④---|
40
口口口口 |①---|
②口口口 |----|
口口口③ |--②-|
④①①口 |③-④-|
41
口①①口 |①---|
口口口口 |--②-|
口口口口 |----|
口②②口 |----|
42
①口口① |①---|
②口口② |--②-|
③口口③ |----|
口口口口 |③---|
43
口④④口 |----|
③③口口 |①-②-|
口口②② |③---|
①①口口 |④---|
44
口口口口 |①---|
②口口口 |----|
口口口③ |--②-|
④①①口 |③-④-|
45
口①①口 |①---|
口②②口 |②---|
口③③口 |③---|
口④④口 |④---|
46
①①①① |①---|
口②③④ |②-③-|
口⑥⑤口 |④---|
口口口口 |⑤-⑥-|
47
口②③④ |①---|
口口口口 |②-③-|
①口口口 |④---|
口⑥⑤口 |⑤-⑥-|
48
口口口口 |①---|
口②③④ |②-③-|
口⑥⑤口 |④---|
①口口口 |⑤-⑥-|
49
口②③④ |①---|
口口口口 |②-③-|
①口口口 |④---|
口口口口 |----|
50
口口口口 |①---|
④③②口 |②-③-|
口⑤⑥口 |④---|
①口口口 |⑤-⑥-|
51
④③②口 |①---|
口口口口 |②-③-|
口口口① |④---|
口⑤⑥口 |⑤-⑥-|
52
口口口口 |①---|
④③②口 |②-③-|
口⑤⑥口 |④---|
口口口① |⑤-⑥-|
53
④③②口 |①---|
口口口口 |②-③-|
口口口① |④---|
口口口口 |----|
54
③①①③ |①--②|
口口口口 |--③-|
口口口口
②口口②

口⑤⑤口
口口口口
口口口口 |-④--|
⑥④④⑥ |⑤--⑥|
55
①口口① |--①-|
口③③口 |-②--|
口口口口 |③---|
口②②口
56
③①①③ |①--②|
口口口口 |--③-|
口口口口
②口口②

口⑤⑤口
口口口口
口口口口 |-④--|
⑥④④⑥ |⑤--⑥|
57
①口口① |--①-|
③③④④ |-②--|
⑤⑤⑥⑥ |③-④-|
口②②口 |⑤-⑥-|
58
①①①① |①---|
口口口口 |----|
口口口口 |----|
口口口口 |----|

不確定度: 0

最終更新:2017年07月30日 19:22