枝に結ぶ願い [2]
Akhuta
BASIC
Level: 4
BPM: 204
Notes: 357
1
口口口口 |----|
口口口口 |----|
口口口口 |----|
口口口口 |----|
2
口口①口 |①---|
口②口口 |----|
口口口口 |②---|
口口口口 |----|
3
口口口口 |①---|
口口口口 |----|
口口①口 |②---|
口②口口 |----|
4
口口口口 |①---|
口口口口 |----|
口②口口 |②---|
口口①口 |----|
5
口②口口 |①---|
口口①口 |----|
口口口口 |②---|
口口口口 |----|
6
口口①① |①---|
口口②② |----|
口口口口 |②---|
口口口口 |----|
7
口口口口 |①---|
口口口口 |----|
口口①① |②---|
口口②② |----|
8
①①口口 |①---|
②②口口 |----|
口口口口 |②---|
口口口口 |----|
9
口口口口 |①---|
口口口口 |----|
①①口口 |②---|
②②口口 |----|
10
口口口口 |①---|
口口口口 |----|
口口口口
口口①<
口口口口
口口口口
口口口口 |②---|
口②②口 |----|
11
口口口口 |①---|
口口口口 |----|
口口①<
口口口口
口口口口
口口口口
口②②口 |②---|
口口口口 |----|
12
口口口口 |①---|
口口①< |----|
口口口口
口口口口
口口口口
口②②口
口口口口 |②---|
口口口口 |----|
13
口口①< |①---|
口口口口 |----|
口口口口
口口口口
口②②口
口口口口
口口口口 |②---|
口口口口 |----|
14
口口口口 |①---|
④③②① |②---|
口口口口 |③---|
口口口口 |④---|
15
口口口口 |①---|
口口口口 |②---|
①②③④ |③---|
口口口口 |④---|
16
口口口口 |①---|
口口口口 |②---|
口口口口 |③---|
④③②① |④---|
17
口口口口 |①---|
口口口口 |②---|
①②③④ |③---|
口口口口 |④---|
18
口口口口 |①---|
④③②① |②---|
口口口口 |③---|
口口口口 |④---|
19
①②③口 |①---|
口口口口 |②---|
口口口口 |③---|
口口口口 |----|
20
①口口口 |①---|
②口口口 |②---|
③口口口 |③---|
④口口口 |④---|
21
口④口口 |①---|
口③口口 |②---|
口②口口 |③---|
口①口口 |④---|
22
口口①口 |①---|
口口②口 |②---|
口口③口 |③---|
口口④口 |④---|
23
口口口④ |①---|
口口口③ |②---|
口口口② |③---|
口口口① |④---|
24
口口口口 |①---|
口②①口 |②---|
口④③口 |③---|
口口口口 |④---|
25
口口口口 |①---|
口口口口 |②---|
③口口③ |③---|
口②①口 |----|
26
口口①口 |①---|
口口②口 |----|
口口口口 |②---|
口口口口 |----|
27
口口口口 |①---|
口口口口 |----|
口①口口 |②---|
口②口口 |----|
28
口∨∨口 |①---|
口||口 |----|
口①①口 |----|
口口口口 |----|
29
口口口口 |----|
口口口口 |----|
口口口口 |----|
口口口口 |----|
30
口口口口 |①---|
口口口口
口①①口
口口口口
31
口口口口 |----|
口口口口 |①---|
口③②口 |②---|
口①口口 |③---|
32
口④③口 |①---|
口②①口 |②---|
口口口口 |③---|
口口口口 |④---|
33
②口口① |①---|
④口口③ |②---|
口口口口 |③---|
口口口口 |④---|
34
口口口口 |①---|
口口口口 |②---|
口④③口 |③---|
口②①口 |④---|
35
口④③口 |①---|
口②①口 |②---|
口口口口 |③---|
口口口口 |④---|
36
②口口① |①---|
口③③口 |②---|
口口口口 |③---|
口口口口 |----|
37
口口口口 |----|
口口口口 |----|
口口口口 |----|
口口口口 |----|
38
③口口③ |①---|
口②②口 |--②-|
①口口① |----|
口口口口 |③---|
39
口口口口 |----|
口口口口 |①---|
口③②① |②---|
口口口口 |③---|
40
②口口② |----|
口①①口 |--①-|
口口口口 |----|
口口口口 |②---|
41
口口口口 |----|
口口口口 |①---|
①②③口 |②---|
口口口口 |③---|
42
口口口口 |①---|
口②口口 |----|
口口口① |----|
口口口口 |②---|
43
口口口口 |①---|
口口口口 |②---|
口②①口 |③---|
口④③口 |④---|
44
口口口口 |①---|
口口口口 |②---|
④口口③ |③---|
②口口① |④---|
45
④口口③ |①---|
②口口① |②---|
口口口口 |③---|
口口口口 |④---|
46
口①①口 |①---|
口②口口 |----|
口口口口 |----|
口口口口 |②---|
47
口口口口 |①---|
口口口口 |②---|
口②①口 |③---|
口④③口 |④---|
48
口口口口 |①---|
口口口口 |②---|
④口口③ |③---|
②口口① |④---|
49
④口口③ |①---|
②口口① |②---|
口口口口 |③---|
口口口口 |④---|
50
口①①口 |①---|
口③②口 |----|
口口口口 |②---|
口口口口 |③---|
51
口口口口 |①---|
口口口口 |②---|
口②①口 |③---|
口④③口 |④---|
52
口口口口 |①---|
③口口③ |--②-|
口②②口 |----|
①口口① |③---|
53
②①①② |--①-|
口口口口 |----|
口口口口 |②---|
口口口口 |----|
54
口口口口 |①---|
①口口① |----|
|口口| |----|
∧口口∧ |----|
55
口口口口 |①---|
①①①① |----|
口②口口 |②---|
口口口口 |----|
56
口②口口 |①---|
口①口口 |----|
口口口口 |②---|
口口口口 |----|
57
口口①口 |①---|
口口②口 |----|
口口口口 |②---|
口口口口 |----|
58
口口口口 |①---|
口口口口 |----|
口口①口 |②---|
口口②口 |----|
59
口口口口 |①---|
④口②口 |②---|
口③口① |③---|
口口口口 |④---|
60
口口口口 |①---|
口②口④ |②---|
①口③口 |③---|
口口口口 |④---|
61
口口①口 |①---|
口口②口 |②---|
口口③口 |③---|
口口④口 |④---|
62
口口口口 |①---|
②口口② |--②-|
口口③口 |----|
口①口口 |③---|
63
口口口口 |①---|
②口口② |--②-|
口①③口 |----|
口口口口 |③---|
64
口口口口 |①---|
②③③② |--②-|
口①口口 |----|
口口口口 |③---|
65
①口口① |①---|
|口口| |----|
|口口| |----|
∧口口∧ |----|
66
①①①① |①---|
口②③口 |----|
口口口口 |②---|
口口口口 |③---|
67
口口口口 |①---|
口③口① |②---|
④口②口 |③---|
口口口口 |④---|
68
口口口口 |①---|
①口③口 |②---|
口②口④ |③---|
口口口口 |④---|
69
口口④口 |①---|
口口③口 |②---|
口口②口 |③---|
口口①口 |④---|
70
口①口口 |①---|
口口口口 |----|
口②②口 |--②-|
口口口口 |----|
71
①口口① |①---|
口②②口 |--②-|
③口口③ |----|
口口口口 |③---|
72
口②②口 |①---|
口口口口 |----|
口①①口 |②---|
口口口口 |----|
73
①口口① |----|
口③②口 |①---|
口口口口 |②---|
口口口口 |③---|
74
口口口口 |①---|
口口口口 |②---|
口②①口 |③---|
口④③口 |④---|
75
①口口① |----|
口③②口 |①---|
口口口口 |②---|
口口口口 |③---|
76
口口口口 |①---|
口口口口 |②---|
口②①口 |③---|
口④③口 |④---|
77
口口口口 |①---|
①口口① |----|
口口口口 |----|
口②②口 |②---|
78
口③③口 |①---|
②口口② |--②-|
口①①口 |----|
口口口口 |③---|
79
①口口① |①---|
|口口| |----|
|口口| |----|
∧口口∧ |----|
80
①口口① |----|
口②③口 |①---|
口口口口 |②---|
口口口口 |③---|
81
口口口口 |①---|
口③口① |②---|
④口②口 |③---|
口口口口 |④---|
82
口口口口 |①---|
①口③口 |②---|
口②口④ |③---|
口口口口 |④---|
83
口口④口 |①---|
口口③口 |②---|
口口②口 |③---|
口口①口 |④---|
84
口①口口 |①---|
口口口口 |----|
口②②口 |--②-|
口口口口 |----|
85
①口口① |①---|
口②②口 |--②-|
③口口③ |----|
口口口口 |③---|
86
②②②② |①---|
口口口口 |----|
口①①口 |②---|
口口口口 |----|
87
口口口口 |----|
①口口① |----|
口口口口 |①---|
口口口口 |----|
88
口∨∨口 |①---|
口||口 |----|
口①①口 |----|
口口口口 |----|
89
口口口口 |----|
口口口口 |----|
口口口口 |----|
口口口口 |----|
90
口口口口 |①---|
口口口口 |----|
口①①口 |----|
口口口口 |----|
91
口口口口 |①---|
口口口口 |②---|
④口口③ |③---|
②口口① |④---|
92
③口口口 |①---|
口②口口 |--②-|
口口①口 |----|
口口口口 |③---|
93
口口①口 |----|
口口②口 |①---|
口口③口 |②---|
口口口口 |③---|
94
口口口口 |①---|
口口口口 |----|
口口口口 |----|
口口①口 |----|
95
③口口口 |①---|
口②口口 |--②-|
口口①口 |----|
口口口口 |③---|
96
口口①口 |①---|
口口②口 |②---|
口口③口 |③---|
口口④口 |④---|
97
口①口口 |①---|
口②口口 |②---|
口③口口 |③---|
口④口口 |④---|
98
口口口④ |①---|
口口口③ |②---|
口口口② |③---|
口口口① |④---|
99
④口口口 |①---|
③口口口 |②---|
②口口口 |③---|
①口口口 |④---|
100
口口口口 |①---|
口①①口 |----|
口||口 |----|
口∧∧口 |----|
101
口口口口 |----|
口①①口 |①---|
口口口口 |----|
口口口口 |----|
102
口口口口 |----|
口口口口 |----|
口口口口 |----|
口口口口 |----|
103
③口口③ |①---|
④②②④ |②---|
口①①口 |--③-|
口口口口 |--④-|
104
口口口口 |--①-|
口口口口 |----|
①口口① |----|
口口口口 |----|
不確定度: 0