イ号零型 [2]
あさき
EXTREME
Level: 9
BPM: 170
Notes: 603
1
口口口口 |----|
口口口口 |----|
口口口口 |----|
口口口口 |----|
2
口口口口 |----|
口②口口 |----|
口口①口 |①---|
口口口口 |②---|
3
①―<口 |①---|
口口口口 |----|
②<口口 |②---|
口口口口 |----|
4
①口口口 |----|
⑤④③② |①---|
①口口口 |②-③-|
口口口口 |④-⑤-|
5
口口口口 |①---|
口口>② |----|
口口口口 |②---|
口>―① |----|
6
口口口口 |----|
口口②① |①---|
口口③① |②---|
口口口① |③---|
7
口口>③ |①---|
④口口口 |②---|
③口口口 |③---|
②①①口 |④---|
8
①②口① |①---|
口③口口 |----|
口口④口 |②---|
口口口口 |③-④-|
9
口口口口 |①---|
口口口口 |②---|
口口口口
②①>①
口⑤⑥口
④口口口
③③口口 |③---|
口口口③ |④-⑤⑥|
10
①口口① |①---|
口口口∧ |----|
口口口口
口口口口
口口口②
口口口口
口口口口 |----|
口口口口 |②---|
11
①―<口 |①---|
口⑤③① |②-③-|
口④②口 |--④-|
口⑤③① |⑤---|
12
⑤⑤⑤口 |①-②-|
②口口④ |--③-|
①口口③ |④---|
②口口④ |⑤---|
13
口>―① |①---|
①③⑤口 |②-③-|
口②④口 |--④-|
①③⑤口 |⑤---|
14
口⑤⑤⑤ |①-②-|
④口口② |--③-|
③口口① |④---|
④口口② |⑤---|
15
①―<口 |①---|
口⑤③① |②-③-|
口④②口 |--④-|
口⑤③① |⑤---|
16
⑤⑤⑤口 |①-②-|
②口口④ |--③-|
①口口③ |④---|
②口口④ |⑤---|
17
口⑥⑥① |①---|
①③⑤| |②-③-|
口②④| |--④-|
①③⑤∧ |⑤-⑥-|
18
①口口口 |--①-|
⑧②③口 |--②-|
⑦口④口 |③-④-|
⑥⑤口口 |⑤⑥⑦⑧|
19
①<口① |①---|
口口口口 |②---|
口口口口
口口口②
⑤⑤⑥口
口④口口
口口③口 |③---|
口口口口 |④-⑤⑥|
20
口口口① |①---|
口口口| |②---|
口口口∧
②口口口
口⑤④④
口口④口
口③口口 |③---|
口口口口 |④-⑤-|
21
①口口口 |①-②-|
②口口口 |③---|
③<口口
口口口口
口⑥⑦口
口⑤口口
⑥口④口 |④---|
口口口口 |⑤-⑥⑦|
22
②口口① |①---|
∧口口| |----|
口口口∧ |②---|
口口口口
③③③③
口④④口
口口口口
口口口口 |--③④|
23
口口口口 |①---|
口口口口 |②---|
口①①口
口口口②
口口口口
口⑤口口
口口④口 |③---|
③口口口 |④-⑤-|
24
①―<口 |①---|
口口口口 |----|
口口口口
口口口口
口口>②
口口口口
口口口口 |②---|
口口口口 |----|
25
①口口① |①-②-|
∨口①④ |③---|
|②口⑤ |④---|
③口口口 |⑤---|
26
口口口口 |①---|
口②②口 |②---|
口口口口
口口口①
③④⑤⑥
口口口⑦
口口口⑧ |③④⑤⑥|
口口口⑨ |⑦⑧⑨-|
27
④口口口 |①-②-|
口⑤③口 |③-④-|
口②口⑥ |--⑤-|
①⑦①口 |⑥-⑦-|
28
口口口口 |----|
口口④④ |①---|
③口口② |②-③-|
口口②① |④---|
29
口口口① |①-②-|
口②口口 |③-④-|
口口③⑥ |--⑤-|
④口口⑤ |--⑥-|
30
③口口① |----|
口口口② |①---|
口口口③ |②---|
口口口口 |③---|
31
口⑦口口 |①-②-|
①口口⑥ |③-④-|
⑤③②口 |--⑤-|
口④①口 |⑥-⑦-|
32
口口口口 |----|
口口口口 |①---|
③②①口 |②---|
口③口口 |③---|
33
口①④口 |①-②-|
①②③口 |③-④-|
口口口⑤ |--⑤-|
口口口口 |----|
34
①②口口 |①---|
⑨③④⑩ |②---|
口⑤⑥口 |③④⑤⑥|
⑦口口⑧ |⑦⑧⑨⑩|
35
口②②口 |①---|
口口口口 |--②-|
②口口②
口①①口
口口口口
口口③口
口④口口 |--③-|
口口⑤口 |④-⑤-|
36
口口口口 |----|
口口口口 |①---|
口③②① |②---|
③口口口 |③---|
37
②②②② |①---|
①③口口 |--②-|
口口④口 |--③-|
口⑤口口 |④-⑤-|
38
口口口口 |----|
口口口③ |①---|
①②③口 |②---|
口口口口 |③---|
39
⑥⑤②③ |①---|
⑦④口口 |②-③-|
口口口口 |④-⑤-|
口口口① |⑥-⑦-|
40
口口口口 |----|
口口口口 |①---|
口口口口 |②---|
口①②③ |③---|
41
口口口口 |①---|
口口①① |②---|
②口口口
口口口口
口④⑤⑥
③口口⑦
口口口⑧ |③-④⑤|
口口口口 |⑥⑦⑧-|
42
口口口口 |--①-|
口①②口 |②---|
口②①口
口口口口
③口口④
③<口⑤
口口口⑥ |③-④⑤|
口⑨⑧⑦ |⑥⑦⑧⑨|
43
口口口口 |①---|
①口口口 |----|
∨口口口
①口口口
口②口口
口口③口
口口口口 |----|
②口口口 |②---③-|
44
口口口口 |①---②-|
口④口① |③---|
口口②③ |----|
口口口口 |④---|
45
口口口口 |①---|
口口口口 |----|
口口>①
口口口口
口口口口
口③口口
②口口② |②---|
口口口口 |③---|
46
口口①口 |①---|
口口口② |--②③|
口口口③
口口口口
⑤⑤⑤⑤
口口口口
口口口口 |④---|
口口口④ |⑤---|
47
口口口口 |①---|
①<口口 |②---|
②口口②
口口口口
口口口∨
③⑤⑤③
口口口口 |③-④-|
口④③口 |⑤---|
48
①②③⑤ |①---|
口⑤⑤① |②---|
②④③② |③-④-|
口口口口 |⑤---|
49
①②③口 |①-②-|
④⑤⑥⑦ |③-④-|
①―<⑧ |⑤-⑥-|
口口口⑨ |⑦⑧⑨-|
50
①①①① |①---|
∧口口∧ |----|
①口口口
口口口口
②口口②
口口口口
口②②口 |②-③-|
③④⑤口 |④-⑤-|
51
②①①② |①---|
②口口② |②---|
口口口口
口口口①
口⑥口口
口口口口
口④口⑤ |③-④-|
③口口口 |⑤-⑥-|
52
⑦⑦口③ |①-②-|
④①②① |③-④⑤|
⑤口口口 |⑥---|
⑥③⑦⑦ |⑦---|
53
④⑦①⑦ |①-②-|
④②①⑥ |③---|
③②口⑥ |④-⑤-|
③⑤口⑤ |⑥-⑦-|
54
③<口⑨ |①-②-|
③②⑤⑥ |③-④-|
口②①⑦ |⑤-⑥⑦|
口④①⑧ |⑧-⑨-|
55
①口③口 |①-②-|
∨口口④ |③-④⑤|
①口②⑤
口口口口
口口口口
口口口口
⑥⑧口口 |⑥-⑦-|
⑦口>⑥ |⑧---|
56
②①口口 |①-②-|
①口③口 |③-④-|
③口①口
④③口①
口口⑤⑥
口⑦口⑤
口⑤口⑦ |⑤-⑥-|
口口⑦⑧ |⑦-⑧-|
57
①①③口 |①-②-|
④⑦②口 |③-④⑤|
⑤口①口 |⑥-⑦-|
⑥<口口
口⑧口口
口口口⑨
口口口⑩
⑨口口口 |⑧-⑨⑩|
58
口口②口 |①-②-|
口口口口
口口口口
口口>①
口口口③
口④④口 |③-④⑤|
口⑤⑤口
口口口④
⑨⑩⑪口
⑧口口⑦
口口口口 |⑥-⑦-|
>⑥⑥< |⑧⑨⑩⑪|
59
口口口① |①---|
口口口口 |②---|
口②②口
口①①口
④口口口
口③③⑥
④口口口 |③-④-|
口⑤⑤口 |⑤-⑥-|
60
口②③④ |①-②③|
①⑦⑥口 |④---|
口②③④ |⑤---|
⑤⑥⑦⑤ |⑥-⑦-|
61
③①②④ |①--②|
①⑤④⑥ |--③-|
②④③口 |④--⑤|
④⑥口⑤ |--⑥-|
62
口口口口 |①---|
口口∨口 |②---|
口>┼①
②口①口
口⑤⑥口
④口口口
③③口③ |③---|
口口③口 |④-⑤⑥|
63
口口口① |①-②-|
口①④| |③-④-|
口口②∧
口③口口
口口⑦⑦
⑦口口口
⑧⑤口口 |⑤-⑥-|
口口⑥口 |⑦-⑧-|
64
口口口口 |①-②-|
口①口口
口口②口
①<口口
∨⑦⑦口
⑤口④口 |③-④-|
口⑤口口 |⑤-⑥-|
⑤③⑥口 |⑦---|
65
口⑦⑦∨ |①-②-|
①①②① |③-④-|
口③④口 |⑤-⑥-|
口⑤⑥口 |⑦---|
66
口口口口 |①-②-|
口口口① |③-④-|
①②③④
口>―①
⑨⑧⑦⑥
⑩⑤⑤口
⑪口口口 |⑤-⑥⑦|
口口口口 |⑧⑨⑩⑪|
67
口⑤口④ |①-②-|
⑥③口口 |③-④-|
口⑦②口 |--⑤-|
①口口① |⑥-⑦-|
68
③④口口 |--①-|
口口⑤② |②-③-|
①口口口 |--④-|
口口口口 |--⑤-|
69
口⑤①① |①-②-|
⑥②口口 |③-④-|
口⑦③口 |--⑤-|
④口口口 |⑥-⑦-|
70
③口口口 |--①-|
口②口④ |②-③-|
①口口口 |--④-|
口口⑤口 |--⑤-|
71
④口口口 |①-②-|
口口③口 |③-④-|
口②口① |----|
口口口① |----|
72
①⑥口口 |--①-|
⑤②口口 |②-③-|
③④口口 |--④-|
口口⑤口 |⑤-⑥-|
73
口口口① |①-②-|
口②①口 |③-④-|
口口③口 |----|
④口口口 |----|
74
口口口口 |--①-|
口口口口 |②-③-|
口口口口
①②③口
⑧口口⑨
口④⑤口
口⑥⑦口 |④⑤⑥⑦|
⑩口口⑪ |⑧⑨⑩⑪|
75
口④④口 |①-②-|
③||③ |③-④-|
①∧∧① |----|
口②②口 |----|
76
口①①口 |----|
口口口口 |----|
口口口口 |----|
口口口口 |--①-|
不確定度: 0