爆なな☆てすとロイヤー
ARM feat.ななひら
BASIC
Level: 5
BPM: 200
Notes: 322
1
口口口口 |----|
口口口口 |----|
口口口口 |----|
口口口口 |----|
2
口口口口 |①---|
口口①口
口口|口
口口∧口
口口口口
口口②口 |----②-|
口口口口 |----|
口口口口 |----|
3
口口口口 |----|
口口口口 |----|
口口口口 |----|
口口口口 |----|
4
口口口口 |----|
口口口口 |----|
口口口口 |----|
口口口口 |----|
5
口口口口 |----|
口口口口 |----|
口口口口 |----|
口口口口 |----|
6
口①①口 |①---|
口口口口 |----|
口口口口 |----|
口口口口 |----|
7
口口口口 |①---|
口①①口 |----|
口口口口 |----|
口口口口 |----|
8
口口口口 |①---|
口口口口 |----|
口①①口 |----|
口口口口 |----|
9
口口口口 |①---|
口口口口 |----|
口口口口 |----|
口①①口 |----|
10
口口口口 |①---|
口①①口 |----|
口口口口 |----|
口口口口 |----|
11
口口口口 |①---|
口口口口 |----|
②口口① |②---|
口口口口 |----|
12
口口口口 |①---|
口③口① |②---|
④口②口 |③---|
口口口口 |④---|
13
口口④口 |①---|
口③口口 |②---|
口口②口 |③---|
口①口口 |④---|
14
口口口口 |①---|
①口③口 |②---|
口②口④ |③---|
口口口口 |④---|
15
口④口口 |①---|
口口③口 |②---|
口②口口 |③---|
口口①口 |④---|
16
口口口口 |①---|
口③口① |②---|
④口②口 |③---|
口口口口 |④---|
17
口口④口 |①---|
口③口口 |②---|
口口②口 |③---|
口①口口 |④---|
18
①口口口 |①---|
口②口口 |----|
口口口口 |②---|
口口口口 |----|
19
口口口口 |①---|
口口口口 |----|
口口①口 |②---|
口口口② |----|
20
口口口口 |①---|
口口口口 |----|
②口口① |②---|
口口口口 |----|
21
口口口口 |①---|
②口口① |----|
口口口口 |②---|
口口口口 |----|
22
②口口① |①---|
口口口口 |----|
口口口口 |②---|
口口口口 |----|
23
口口口口 |①---|
口①①口 |----|
口②②口 |②---|
口口口口 |----|
24
口口口口 |①---|
②口口① |----|
口口口口 |②---|
口口口口 |----|
25
②口口① |①---|
口口口口 |----|
口口口口 |②---|
口口口口 |----|
26
口口口口 |①---|
口①①口 |----|
口②②口 |②---|
口口口口 |----|
27
口口口① |①---|
口口口② |②---|
口口口③ |③---|
口口口④ |④---|
28
口口口口 |①---|
口口口口 |②---|
③②①口 |③---|
口口口口 |----|
29
口口口口 |①---|
口①②③ |②---|
口口口口 |③---|
口口口口 |----|
30
③②①口 |①---|
口口口口 |②---|
口口口口 |③---|
口口口口 |----|
31
口口口口 |①---|
口①①口 |----|
口②②口 |②---|
口口口口 |----|
32
口口口口 |①---|
③②①口 |②---|
口口口口 |③---|
口口口口 |----|
33
口①②③ |①---|
口口口口 |②---|
口口口口 |③---|
口口口口 |----|
34
口口口口 |①---|
口②①口 |----|
口①②口 |②---|
口口口口 |----|
35
口口口口 |----|
口①口口 |----|
口|口口 |①---|
口∧口口 |----|
36
口口口口 |----|
口口口口 |----|
口口口口 |----|
口口口口 |----|
37
口口口口 |----|
口①口口 |----|
口口口口 |①---|
口口口口 |----|
38
口口口口 |①---|
口口口口 |----|
口口口口 |----|
口①①口 |----|
39
口口口口 |①---|
口口①口 |----|
口口口口 |----|
口口口口 |----|
40
口口口口 |①---|
口口口口 |----|
口口①口 |----|
口口口口 |----|
41
口口口口 |①---|
口①口口 |----|
口口口口 |----|
口口口口 |----|
42
口口口口 |①---|
口口口口 |----|
口①口口 |----|
口口口口 |----|
43
口口①口 |①---|
口②口口 |----|
口口口口 |②---|
口口口口 |----|
44
口口口口 |①---|
口口口口 |----|
口口①口 |②---|
口②口口 |----|
45
口口口口 |①---|
②口口② |----|
①口口① |②---|
口口口口 |----|
46
①口口① |①---|
口口②口 |----|
口③口口 |②---|
口口口口 |③---|
47
②③口口 |①---|
口口口口 |----|
口口口口 |--②-|
口口①口 |--③-|
48
口口口口 |----|
口口①口 |----|
口②口口 |①---|
口口口口 |②---|
49
②③口口 |①---|
口口口口 |----|
口口口口 |--②-|
口口①口 |--③-|
50
口口口口 |----|
口口口口 |----|
口口②① |①---|
口口口口 |②---|
51
口口口口 |①---|
口口③口 |②---|
②①口口 |----|
口口口口 |③---|
52
口口口口 |①---|
口①口口 |②---|
口③②口 |③---|
口口④口 |④---|
53
口口口口 |①---|
②口口② |----|
|口口| |②---|
∧①口∧ |----|
54
口口口口 |--①-|
①口②① |----|
口③口口 |②---|
口口口口 |③---|
55
口②②口 |①---|
口口口口 |----|
口口口口 |----|
口口①口 |②---|
56
口口口口 |----|
口口口口 |----|
口①①口 |①---|
口口口口 |----|
57
③口口③ |①---|
①口口① |----|
口②②口 |②---|
口口口口 |--③-|
58
口口口口 |----|
口口口口 |----|
口口口口 |----|
口口口口 |----|
59
②③③② |①---|
口④④口 |--②-|
口①①口 |--③-|
口口口口 |--④-|
60
口口口口 |----|
口口口口 |----|
口口口口 |①---|
口②①口 |②---|
61
①口口① |①---|
|口口| |----|
∧口口∧ |----|
口口口口 |----|
62
①口口① |①---|
口口口口 |----|
口①①口
口口口口
口②②口
口||口
口||口 |②---|
口∧∧口 |----|
63
口①①口 |----|
口口口口 |----|
口口口口 |----|
口口口口 |①---|
64
口口口口 |①---|
口口口口 |----|
①①①① |----|
口口口口 |----|
65
口口口口 |①---|
口口口口 |----|
口口口口 |----|
①①①① |----|
66
口口口口 |①---|
口①①口 |----|
口②②口 |②---|
口口口口 |----|
67
①①①① |①---|
口口口口 |----|
口口口口 |----|
口口口口 |----|
68
口口口口 |①---|
口口④口 |②---|
③口口③ |③---|
口②①口 |④---|
69
口口④④ |①---|
③口口③ |②---|
口①②口 |③---|
口口口口 |④---|
70
①①口口 |①---|
口口口口 |----|
口口口口
口口口口
③口口③
|口口|
∧②②∧ |②---|
口口口口 |--③-|
71
①口口① |----|
口口口口 |----|
口口口口 |①---|
口口口口 |----|
72
口口口口 |①---|
口口④口 |②---|
③口口③ |③---|
口②①口 |④---|
73
口口口口 |①---|
③口口③ |②---|
口①②口 |③---|
口口口口 |----|
74
口口口口 |①---|
口口口口 |②---|
口口口口 |③---|
④③②① |④---|
75
①口口口 |①---|
②口口口 |②---|
③口口口 |③---|
④口口口 |④---|
76
口口④口 |①---|
③口口③ |②---|
口②①口 |③---|
口口口口 |④---|
77
③④④③ |①---|
口①②口 |②---|
口口口口 |③---|
口口口口 |④---|
78
③口口③ |①---|
|口口| |----|
∧②②∧ |②---|
口①①口 |--③-|
79
①口口① |----|
口口口口 |----|
口口②口 |①---|
口口口口 |②---|
80
口②②口 |①---|
口口口口 |----|
口③口口 |②---|
口①口口 |③---|
81
口②②口 |①---|
口口口口 |----|
口口口口 |②---|
口口①口 |----|
82
②口口② |①---|
口口③口 |--②-|
口①①口 |----|
口口口口 |③---|
83
②口口② |①---|
口口口口 |----|
口①①口 |----|
口口口口 |②---|
84
④口口④ |①---|
口①①口 |②---|
口②②口 |③---|
口③③口 |④---|
85
④口口④ |①---|
口①①口 |②---|
口②②口 |③---|
口③③口 |④---|
86
④口口④ |①---|
口①①口 |②---|
口②②口 |③---|
口③③口 |④---|
87
④口口④ |①---|
口①①口 |②---|
口②②口 |③---|
口③③口 |④---|
88
口口口口 |①---|
口③口① |②---|
④口②口 |③---|
口口口口 |④---|
89
口口④口 |①---|
口③口口 |②---|
口口②口 |③---|
口①口口 |④---|
90
口口口口 |①---|
①口③口 |②---|
口②口④ |③---|
口口口口 |④---|
91
口④口口 |①---|
口口③口 |②---|
口②口口 |③---|
口口①口 |④---|
92
口口口口 |①---|
口③口① |②---|
④口②口 |③---|
口口口口 |④---|
93
口口④口 |①---|
口③口口 |②---|
口口②口 |③---|
口①口口 |④---|
94
①口口口 |①---|
口②口口 |----|
口口口口 |②---|
口口口口 |----|
95
口口口口 |①---|
口口口口 |----|
口口①口 |②---|
口口口② |----|
96
②口口② |①---|
|口口| |----|
|①①| |②-|
∧口口∧
③口口③
口口口口
口口口口 |-③|
口口口口 |----|
97
口口口口 |①---|
②②②② |--②-|
口口口口 |----|
口①①口 |----|
不確定度: 0