The Omen
RoughSketch
BASIC
Level: 5
BPM: 185
Notes: 340
1
口口口口 |----|
口口口口 |----|
口口口口 |----|
口口口口 |----|
2
口口口口 |①---|
口①口口 |----|
口口②口 |②---|
口口口口 |----|
3
②口口② |①---|
口口口口 |--②-|
口口口口 |----|
口①口口 |----|
4
口口口口 |①---|
口口①口 |----|
口②口口 |②---|
口口口口 |----|
5
②口口② |①---|
口口口口 |--②-|
口口口口 |----|
口口①口 |----|
6
口口口口 |①---|
口①口口 |----|
口口②口 |②---|
口口口口 |----|
7
②口口② |①---|
口口口口 |--②-|
口口口口 |----|
口①口口 |----|
8
口口口口 |①---|
口口①口 |----|
口②口口 |②---|
口口口口 |----|
9
②口口② |①---|
口口口口 |--②-|
口口口口 |----|
口口①口 |----|
10
口①①口 |①---|
口||口 |----|
口∧∧口 |----|
口口口口 |----|
11
口口口口 |----|
口口口口 |----|
口口口口 |----|
口口口口 |----|
12
①①①① |①---|
口口口口 |----|
口口口口 |----|
口口口口 |----|
13
口口口口 |----|
口口口口 |----|
口口口口 |----|
口口口口 |----|
14
口口口口 |①---|
口∨∨口 |----|
口||口 |----|
口①①口 |----|
15
口口口口 |----|
口口口口 |----|
口口口口 |----|
口口口口 |----|
16
口口口口 |①---|
口口口口 |----|
口口口口 |----|
①①①① |----|
17
口口口口 |①---|
口①①口 |----|
口||口 |----|
口∧∧口 |----|
18
口口口口 |----|
口口口口 |----|
口口口口 |----|
口口口口 |----|
19
口口口口 |----|
口①①口 |----|
口口口口 |①---|
口口口口 |----|
20
口口口① |①---|
口口口② |②---|
口口口③ |③---|
口口口④ |④---|
21
③口口③ |①---|
口①①口 |----|
口②②口 |②---|
口口口口 |--③-|
22
口口口口 |----|
口口口口 |①---|
①口口② |----|
口①②口 |②---|
23
③口口② |----|
口口口口 |①---|
口①①口 |②---|
口口口口 |③---|
24
口口口口 |①---|
口①①口 |----|
口②②口 |②---|
口口口口 |----|
25
④口口④ |①---|
口③③口 |②---|
②口口① |③---|
口②①口 |④---|
26
口口口口 |①---|
口口口口 |②---|
③口口② |----|
①③②① |③---|
27
④②②④ |①---|
口①①口 |②---|
口③③口 |③---|
口口口口 |④---|
28
口口口口 |①---|
口口④② |②---|
口口口口 |③---|
口口③① |④---|
29
口口口口 |①---|
④②口口 |②---|
口口口口 |③---|
③①口口 |④---|
30
③口口② |①---|
口口口口 |②---|
④口口① |③---|
口口口口 |④---|
31
口③口② |①---|
口口④口 |②---|
口⑤口① |③--④|
口口口口 |--⑤-|
32
口口口口 |①---|
口口④② |②---|
口口口口 |③---|
口口③① |④---|
33
口口口口 |①---|
④②口口 |②---|
口口口口 |③---|
③①口口 |④---|
34
④口口② |①---|
口口口口 |②---|
③口口① |③---|
口口口口 |④---|
35
口口口口 |①---|
口①①口 |②---|
口②②口 |③---|
口③③口 |----|
36
①口口① |①---|
②口口② |--②-|
口③③口 |--③-|
④口口④ |--④-|
37
口口口口 |----|
口口口口 |----|
口口口口 |----|
口口口口 |----|
38
④口口④ |①---|
口③③口 |--②-|
②口口② |--③-|
①口口① |--④-|
39
口口口口 |----|
口口口口 |----|
口口口口 |----|
口口口口 |----|
40
①口口① |①---|
②口口② |--②-|
口③③口 |--③-|
④口口④ |--④-|
41
口口口口 |----|
口口口口 |----|
口口口口 |----|
口口口口 |----|
42
④口口④ |①---|
口③③口 |--②-|
②口口② |--③-|
①口口① |--④-|
43
口④⑤口 |--①-|
口口③口 |-②--|
口②口口 |③--④|
口口①口 |--⑤-|
44
口口口口 |----|
口口口口 |----|
口口口口 |----|
口口口口 |----|
45
口口口口 |①---|
口②口口 |----|
口①①口 |----|
口口口口 |②---|
46
口口口口 |①---|
口口口口 |②---|
口④①口 |③---|
口②③口 |④---|
47
③④④③ |①---|
口②①口 |②---|
口口口口 |--③-|
口口口口 |--④-|
48
口口口口 |----|
口口口口 |----|
口口口口 |----|
口口口口 |----|
49
口口口口 |①---|
口口口口 |----|
口①①口 |----|
口②口口 |②---|
50
口口口口 |①---|
口②③口 |②---|
口④①口 |③---|
口口口口 |④---|
51
口口口② |①---|
口口口口 |--②-|
口口口口 |----|
口③①口 |③---|
52
①口口口 |--①-|
口口③口 |----|
口口②口 |②---|
口口口口 |③---|
53
①口口① |①---|
口口口口 |②---|
口口口口 |----|
口②②口 |----|
54
口口②口 |①---|
①③口① |--②-|
口口④口 |-③--|
口口口口 |④---|
55
①口口① |①---|
口口口口 |②---|
口口口口 |----|
口②②口 |----|
56
口③②口 |①---|
①⑤④① |②-③-|
口⑦⑥口 |④-⑤-|
口口口口 |⑥-⑦-|
57
口口口口 |①---|
口口口口 |----|
口口口口 |----|
>―①口 |----|
58
口口口口 |----|
口口口口 |----|
口口口口 |----|
口口口口 |----|
59
口口口口 |①---|
口①―< |----|
口口口口 |----|
口口①口 |----|
60
口口①口 |①---|
口①口口 |----|
口口口口 |----|
口口口口 |----|
61
③②①口 |①-②-|
⑤口口⑤ |③--④|
口口口口 |----|
口④④口 |⑤---|
62
口①②③ |①-②-|
⑤口口⑤ |③--④|
口口口口 |----|
口④④口 |⑤---|
63
②④④② |①---|
口口口口 |②---|
口口口口 |③---|
①③③① |④---|
64
②口口② |①---|
口⑤⑤口 |②--③|
口④④口 |-④-⑤|
①③③① |----|
65
③②①口 |①-②-|
⑤口口⑤ |③--④|
口口口口 |----|
口④④口 |⑤---|
66
口①②③ |①-②-|
⑤口口⑤ |③--④|
口口口口 |----|
口④④口 |⑤---|
67
②④④② |①---|
口口口口 |②---|
口口口口 |③---|
①③③① |④---|
68
②口口② |①---|
口⑤⑤口 |②--③|
口④④口 |-④-⑤|
①③③① |----|
69
口口口口 |①---|
口口口口 |②---|
④口口③ |③---|
②口口① |④---|
70
④口口③ |①---|
②口口① |②---|
口口口口 |③---|
口口口口 |④---|
71
口口①口 |①---|
口②口口 |②---|
口口③口 |③---|
口④口口 |④---|
72
③口口③ |①---|
口口口口 |②--③|
口②口口 |----|
口口①口 |----|
73
口口①口 |①---|
口②口口 |②---|
口口③口 |③---|
口④口口 |④---|
74
口④口口 |①---|
口口③口 |②---|
口②口口 |③---|
口口①口 |④---|
75
①口口① |①---|
②口口② |②---|
③口口③ |③---|
④口口④ |④---|
76
口口口口 |①---|
口①①口 |----|
口口口口 |----|
口口口口 |----|
77
口口口口 |①---|
口口口② |②---|
口①①③ |③---|
口口口④ |④---|
78
口口①口 |①---|
口口②口 |②---|
口口③口 |③---|
口口④口 |④---|
79
口①口口 |①---|
口②口口 |②---|
口③口口 |③---|
口④口口 |④---|
80
①口口口 |①---|
②口口口 |②---|
③口口口 |③---|
④口口口 |④---|
81
口口口口 |①---|
口口口② |②---|
口①①③ |③---|
口口口④ |④---|
82
口口①口 |①---|
口口②口 |②---|
口口③口 |③---|
口口④口 |④---|
83
口①口口 |①---|
口②口口 |②---|
口③口口 |③---|
口④口口 |④---|
84
①口口口 |①---|
②口口口 |②---|
③口口口 |③---|
④口口口 |④---|
85
口口口口 |①---|
口①①口 |----|
口①①口 |----|
口口口口 |----|
不確定度: 0