CHERNOBOG
漆黒のEBONY
BASIC
Level: 5
BPM: 200
Notes: 430
1
口口口口 |----|
口口口口 |----|
口①①口 |----|
口口口口 |①---|
2
口口口口 |----|
口口口口 |----|
口口口口 |----|
口口口口 |----|
3
口口口口 |①---|
①①①① |----|
口口口口 |----|
口口口口 |----|
4
口口口口 |----|
口口口口 |----|
口口口口 |----|
口①①口 |①---|
5
口口口口 |①---|
①①①① |----|
口②②口 |----|
口口口口 |②---|
6
①①①① |①---|
口口口口 |----|
口口口口 |----|
口②②口 |②---|
7
①①①① |①---|
口②②口 |----|
口口口口 |②---|
口口口口 |----|
8
口口口口 |①---|
口口口口 |----|
口①①口 |②---|
口②②口 |----|
9
口口口口 |①---|
口①①口 |----|
口口口口 |----|
口口口口 |----|
10
口口口口 |①---|
口口口口 |----|
口②②口 |②---|
口①①口 |----|
11
①①①① |①---|
口口口口 |----|
口口口口 |----|
口口口口 |----|
12
口口口口 |----|
口口口口 |----|
口口口口 |----|
口口口口 |----|
13
口口口口 |①---|
口②①口 |②---|
口④③口 |③---|
口口口口 |④---|
14
口口口口 |①---|
②口口① |②---|
④口口③ |③---|
口口口口 |④---|
15
口口口口 |①---|
口②①口 |②---|
口④③口 |③---|
口口口口 |④---|
16
口口口口 |①---|
②口口① |②---|
④口口③ |③---|
口口口口 |④---|
17
口②①口 |①---|
口口口口 |②---|
口④③口 |③---|
口口口口 |④---|
18
②口口① |①---|
口口口口 |②---|
④口口③ |③---|
口口口口 |④---|
19
口②①口 |①---|
口口口口 |②---|
口口口口 |③---|
口④③口 |④---|
20
口口口口 |①---|
①口口① |②---|
②口口② |③---|
③④④③ |④---|
21
口口口口 |①---|
口②①口 |②---|
口④③口 |③---|
口口口口 |④---|
22
口口口口 |①---|
②口口① |②---|
④口口③ |③---|
口口口口 |④---|
23
口口口口 |①---|
口②①口 |②---|
口④③口 |③---|
口口口口 |④---|
24
口口口口 |①---|
②口口① |②---|
④口口③ |③---|
口口口口 |④---|
25
口②①口 |①---|
口口口口 |②---|
口④③口 |③---|
口口口口 |④---|
26
②口口① |①---|
口口口口 |②---|
④口口③ |③---|
口口口口 |④---|
27
口②①口 |①---|
口口口口 |②---|
口口口口 |③---|
口④③口 |④---|
28
口口口口 |①---|
①口口① |②---|
②口口② |③---|
③④④③ |④---|
29
④④②② |①---|
口口口口 |②---|
口③①口 |③---|
口口口口 |④---|
30
④④②② |①---|
口口口口 |②---|
口③①口 |③---|
口口口口 |④---|
31
④④②② |①---|
口口口口 |②---|
口③①口 |③---|
口口口口 |④---|
32
口口②② |①---|
口③③口 |②---|
口口①口 |③-④-|
口④④口 |----|
33
④④②② |①---|
口口口口 |②---|
口③①口 |③---|
口口口口 |④---|
34
④④②② |①---|
口口口口 |②---|
口③①口 |③---|
口口口口 |④---|
35
口⑧⑦口 |①-②-|
口⑥⑤口 |③-④-|
口④③口 |⑤-⑥-|
口②①口 |⑦-⑧-|
36
②口口① |①-②-|
④口口③ |③-④-|
⑥口口⑤ |⑤-⑥-|
⑧口口⑦ |⑦-⑧-|
37
②口口② |①---|
口①①口 |----|
口①①口 |②---|
口口口口 |----|
38
口②②口 |①---|
口口口口 |----|
①口口① |②---|
口口口口 |----|
39
②口口② |①---|
口口口口 |----|
口①①口 |②---|
口口口口 |----|
40
口②②口 |①---|
口口口口 |----|
口口口口 |②---|
①口口① |----|
41
②口口② |①---|
口口口口 |----|
口①①口 |②---|
口口口口 |----|
42
口②②口 |①---|
口口口口 |----|
①口口① |②---|
口口口口 |----|
43
口口口口 |①---|
①①①① |----|
口口口口 |----|
口口口口 |----|
44
口口口口 |①---|
口口口口 |----|
①①①① |----|
口口口口 |----|
45
口口③口 |①---|
②口④① |②---|
②口⑤① |③-④-|
口口口口 |⑤---|
46
口口口口 |①---|
②③④口 |②-③-|
口⑥⑤口 |④---|
口①口口 |⑤-⑥-|
47
①③口① |①---|
口④口口 |②---|
口⑤口口 |③-④-|
②口口② |⑤---|
48
②口口② |①---|
口⑥⑤口 |②---|
口④③口 |③-④-|
口口①口 |⑤-⑥-|
49
口口③口 |①---|
②口④① |②---|
②口⑤① |③-④-|
口口口口 |⑤---|
50
口口口口 |①---|
②③④口 |②-③-|
口⑥⑤口 |④---|
口①口口 |⑤-⑥-|
51
①口口① |①---|
口口③口 |②---|
口口④口 |③-④-|
②口⑤② |⑤---|
52
②②①① |①-②-|
口口口口 |----|
口口③口 |③---|
口口口口 |----|
53
口口口口 |①---|
口④④口 |②---|
②口口② |③---|
③①①③ |④---|
54
②④④② |①---|
③口口③ |②---|
口①①口 |③---|
口口口口 |④---|
55
口口口口 |①---|
口④④口 |②---|
②口口② |③---|
③①①③ |④---|
56
②④④② |①---|
③口口③ |②---|
口①①口 |③---|
口口口口 |④---|
57
④口口④ |①---|
口口①口 |②---|
口口②口 |③---|
口口③口 |④---|
58
④口口④ |①---|
口①口口 |②---|
口②口口 |③---|
口③口口 |④---|
59
⑧口口⑦ |①-②-|
⑥口口⑤ |③-④-|
④口口③ |⑤-⑥-|
②口口① |⑦-⑧-|
60
口②①口 |①-②-|
口④③口 |③-④-|
口⑥⑤口 |⑤-⑥-|
口⑧⑦口 |⑦-⑧-|
61
口口口口 |①---|
①口②① |----|
口口口口 |②---|
口口口口 |----|
62
口口口口 |①---|
口口口口 |----|
口②①口 |②---|
口口口口 |----|
63
口口口口 |①---|
口①②口 |----|
口口口口 |②---|
口口口口 |----|
64
口口口口 |①---|
口口口口 |----|
口②①口 |②---|
口口口口 |----|
65
口口口口 |①---|
口①②口 |----|
口口口口 |②---|
口口口口 |----|
66
口口口口 |①---|
口口口口 |----|
口②①口 |②---|
口口口口 |----|
67
口口口口 |①---|
口①②口 |----|
口口口口 |②---|
口口口口 |----|
68
口口口口 |①---|
口口口口 |----|
口②①口 |②---|
口口口口 |----|
69
口口口口 |①---|
口口口口 |----|
口②②口 |②---|
口①①口 |----|
70
口②②口 |①---|
口①①口 |----|
口口口口 |②---|
口口口口 |----|
71
口口口口 |①---|
口口口口 |----|
②口口② |②---|
①口口① |----|
72
②口口② |①---|
①口口① |----|
口口口口 |②---|
口口口口 |----|
73
口④口口 |①---|
口口③口 |②---|
口②口口 |③---|
口口①口 |④---|
74
口口④口 |①---|
口③口口 |②---|
口口②口 |③---|
口①口口 |④---|
75
口⑧⑦口 |①-②-|
口⑥⑤口 |③-④-|
口④③口 |⑤-⑥-|
口②①口 |⑦-⑧-|
76
②口口① |①-②-|
④口口③ |③-④-|
⑥口口⑤ |⑤-⑥-|
⑧口口⑦ |⑦-⑧-|
77
口口口口 |①---|
口①①口 |----|
口①①口 |----|
口口口口 |----|
78
口口口口 |----|
口口口口 |----|
口口口口 |----|
口①①口 |①---|
79
口口口口 |①---|
①①①① |----|
口②②口 |----|
口口口口 |②---|
80
①①①① |①---|
口口口口 |----|
口口口口 |----|
口②②口 |②---|
81
①①①① |①---|
口②②口 |----|
口口口口 |②---|
口口口口 |----|
82
口口口口 |①---|
口口口口 |----|
口①①口 |②---|
口②②口 |----|
83
①口口① |①---|
②口口② |----|
口口口口 |②---|
口口口口 |----|
84
口口口口 |①---|
口口口口 |----|
①口口① |②---|
②口口② |----|
85
口口①口 |①---|
口②口口 |②---|
口口③口 |③---|
口④口口 |④---|
86
口④口口 |①---|
口口③口 |②---|
口②口口 |③---|
口口①口 |④---|
87
⑧口口⑦ |①-②-|
⑥口口⑤ |③-④-|
④口口③ |⑤-⑥-|
②口口① |⑦-⑧-|
88
口②①口 |①-②-|
口④③口 |③-④-|
口⑥⑤口 |⑤-⑥-|
口⑧⑦口 |⑦-⑧-|
89
①①①① |①---|
口口口口 |----|
口口口口 |----|
口口口口 |----|
不確定度: 0