Windy Fairy [2]
DJ TOTTO
EXTREME
Level: 9
BPM: 180
Notes: 690
1
口口口口 |----|
口口口口 |----|
口口口口 |----|
口口口口
2
①―<口 |①---|
口口口口 |--②-|
口口口④ |③-④-|
口口③②
3
①口口口 |①---|
口口口口 |----|
口②①口 |②---|
口口口口
4
口>―① |①---|
口口口口 |--②-|
④口口口 |③-④-|
②③口口
5
口口口① |①---|
口③②口 |②---|
口①口口 |③---|
口口口口
6
口口③② |①---|
口口口④ |--②-|
口口口口 |③-④-|
①―<口
7
口口口口 |①---|
口口①口 |----|
口②②口 |②---|
①口口口
8
①口口① |①---|
|口口| |----|
∧口口∧ |----|
口口口口
9
①口口① |----|
口口口口 |----|
①②③④ |①②③④|
口口口口
10
口③②口 |①-②③|
①⑦④口 |④-⑤-|
口口口口 |⑥-⑦-|
⑤①⑥口
11
口口口口 |①---|
口口②① |----|
口③口口 |②-③-|
口口口口
12
口口口⑤ |①---|
④口口口 |②-③-|
口口口③ |④-⑤-|
②口①①
13
口③②口 |①-②③|
口口④口 |④---|
①①口口 |⑤---|
口⑤⑤口
14
⑤口⑥① |①-②③|
③口口② |④-⑤-|
口⑦口口 |⑥-⑦-|
①口口④
15
口口口口 |①---|
口③口口 |----|
口口②① |②-③-|
口口口口
16
④口①① |①--②|
⑤口口口 |--③-|
口②口口 |④-⑤-|
口③③口
17
口口口口 |①---|
口④③② |②③④⑤⑥⑦|
口⑦⑥⑤
①――<
口口口口
口口口口
⑧口口口 |⑧-⑨-|
口口口⑨
18
②③④① |①-②③|
⑤口⑦口 |④-⑤-|
口⑥口口 |⑥-⑦-|
①口口口
19
口口④③ |①---|
口口口口 |②---|
口口口① |③-④-|
口②口口
20
口①口⑤ |①---|
④口口口 |②-③-|
口口口③ |④-⑤-|
②口口口
21
口口口口 |①-②③|
口口②口 |④---|
⑤③口口 |⑤---|
口①④口
22
⑤②口口 |①-②③|
口口③⑥ |④-⑤-|
⑦④①① |⑥-⑦-|
口口口口
23
口口口口 |①--②|
口口③口 |--③-|
口⑤口口 |④-⑤-|
口②④①
24
①③口② |①-②-|
|口口④ |③-④-|
|口口口
∧口口口
⑥口口口
口⑤口口
⑦口口⑥ |⑤-⑥⑦|
口口口口
25
口口∨口 |①---|
口口|口 |----|
口口|口
口口①口
口口口口
口口口口
口口口口 |--②-|
口口②口
26
口口口口 |①---|
①口③② |---②③④|
⑤④口口 |⑤-⑥-|
口口口⑥
27
①口口③ |①---|
②①③口 |②---|
口口口口 |③---|
口②口口
28
口口口口 |①---|
口②口∨ |②---|
口③口| |③---|
口口口①
29
口③②⑤ |①-②③|
口口④口 |④-⑤-|
⑥⑦口口 |⑥-⑦-|
口①口①
30
口口口口 |①---|
口口口④ |--②-|
口口①③ |③-④-|
口口口②
31
②①口口 |①---|
①口口口 |②---|
口②口口 |③---|
口③③口
32
口口口⑤ |①-②-|
口口⑤口 |③-④-|
④口口③ |⑤---|
②口口①
33
⑤口口口 |①-②-|
口⑤口口 |③-④-|
口③④口 |⑤---|
口①②口
34
口口口口 |①---|
①口③② |---②③④|
⑤④口口 |⑤-⑥-|
口口口⑥
35
①口口③ |①---|
②①③口 |②---|
口口口口 |③---|
口②口口
36
口口口口 |①---|
口②口∨ |②---|
口③口| |③---|
口口口①
37
口③②⑤ |①-②③|
口口④口 |④-⑤-|
⑥⑦口口 |⑥-⑦-|
口①口①
38
口口口口 |①---|
口口口④ |--②-|
口口①③ |③-④-|
口口口②
39
②①口口 |①---|
①口口口 |②---|
口②口口 |③---|
口③③口
40
口口①⑤ |①-②-|
②③口口 |③-④-|
④口⑤① |⑤---|
口口口口
41
①口口口 |①-②-|
⑤⑦③② |③-④-|
口①⑥④ |⑤-⑥⑦|
口⑤口口
42
口口①口 |①---|
⑥口口口 |---②③④|
②③口口 |⑤-⑥-|
口口④⑤
43
③口②① |①---|
口口①口 |②---|
口③口② |③---|
口口口口
44
口口③口 |①---|
口∨口口 |②---|
①┼<口 |③---|
口①口②
45
⑤口口⑥ |①-②③|
口③②口 |④-⑤-|
①口④① |⑥-⑦-|
⑦①口口
46
口口口口 |①---|
口口④口 |--②-|
口③②口 |③-④-|
口口口①
47
口①口口 |①---|
①②口口 |②---|
口口③口 |③---|
②口口③
48
①⑤⑤① |①-②-|
口口口口 |③-④-|
口④口口 |⑤---|
口②③口
49
⑤口口⑤ |①-②-|
口③②口 |③-④-|
口口④口 |⑤---|
①口口①
50
口口①口 |①---|
⑥口口口 |---②③④|
②③口口 |⑤-⑥-|
口口④⑤
51
③口②① |①---|
口口①口 |②---|
口③口② |③---|
口口口口
52
口口③口 |①---|
口∨口口 |②---|
①┼<口 |③---|
口①口②
53
⑤口口⑥ |①-②③|
口③②口 |④-⑤-|
①口④① |⑥-⑦-|
⑦①口口
54
口口口口 |①---|
口口④口 |--②-|
口③②口 |③-④-|
口口口①
55
口①口口 |①---|
①②口口 |②---|
口口③口 |③---|
②口口③
56
口口①① |①-②-|
②口口口 |③-④-|
口口口③ |⑤---|
④⑤⑤口
57
①①口口 |①-②-|
口口口② |③-④-|
③⑤⑤口 |⑤---|
口口口④
58
>――① |①---|
口口口口 |----|
口口口口
口口口口
口口口②
口口②口
口口口口 |②---|
口口口口
59
口口口口 |①---|
口口口口 |----|
口口口口
①――<
口口口口
口口口口
口②口口 |②---|
②口口口
60
⑤①③口 |①-②-|
口口口口 |③-④-|
口口口口 |⑤-⑥-|
口④②⑥
61
口口口① |①-②-|
口④③口 |③-④-⑤-|
口⑥⑤口 |⑥---|
②口口口
62
①――< |①---|
口口口口 |----|
口口口口
口口口口
②口口口
口②口口
口口口口 |②---|
口口口口
63
口口口口 |①---|
口口口口 |----|
口口口口
>――①
口口口口
口口口口
口口②口 |②---|
口口口②
64
口③①⑤ |①-②-|
口口口口 |③-④-|
口口口口 |⑤-⑥-|
⑥②④口
65
①口口口 |①-②-|
口③④口 |③-④-⑤-|
口⑤⑥口 |⑥---|
口口口②
66
>――① |①---|
口口口口 |----|
口口口口
①――<
口口口②
口口②口
口②口口 |②---|
②口口口
67
①口口∨ |①---|
|口口| |----|
|口口|
∧口口①
②口口口
口②口口
口口②口 |②---|
口口口②
68
口③①⑤ |①-②-|
口口口口 |③-④-|
口口口口 |⑤-⑥-|
口④②⑥
69
①口口⑦ |①-②-|
口④③口 |③-④-⑤-|
口⑥⑤口 |⑥-⑦-|
②口口口
70
口②③口 |①-②-③-|
①⑦⑧⑨ |④-⑤-⑥-|
口口口④ |⑦-⑧-⑨-|
口⑥⑤口
71
④⑤⑤口 |①-②-|
③⑥⑥口 |③-④-|
②口口口 |⑤-⑥-|
①口口口
72
口口口口 |①-②-③-|
⑧口口⑦ |④-⑤-⑥-|
④②①⑤ |⑦-⑧-⑨-|
⑥口③⑨
73
⑤④口⑤ |①-②-|
⑥③口⑥ |③-④-|
口②口口 |⑤-⑥-|
口①口口
74
口口口口 |①-②-③-|
⑨⑧⑦口 |④-⑤-⑥-|
④⑤⑥口 |⑦-⑧-⑨-|
口③②①
75
口①②③ |①-②-③-|
口口口口 |④-⑤-⑥-|
⑦⑧⑨口 |⑦-⑧-⑨-|
口⑥⑤④
76
②③口口 |①---|
口口口① |----|
口口口| |--②③|
口口口∧
77
口口口口 |①---|
①口口① |----|
口④⑤口 |②③④⑤|
口②③口
78
③④口② |①---|
⑤①口口 |②-③④|
口口口口 |⑤-⑥-|
口口⑥口
79
口口口口 |①---|
口口口① |②---|
②口③口 |③---|
口③口口
80
①口口② |①---|
③④⑤⑥ |②--③④⑤|
口⑦口口 |⑥-⑦-|
口口口口
81
口口口口 |①---|
口口口口 |②-③-|
口口①口 |④-⑤-|
②④⑤③
82
①②口⑥ |①②③④|
③④⑦口 |⑤-⑥-|
⑤⑧口口 |⑦-⑧-|
口口口口
83
口口口⑦ |①②③④|
口⑥⑧⑤ |⑤-⑥-|
口口④③ |⑦-⑧-|
口口②①
84
∨∨口口 |①---|
||口② |--②-|
||②口 |----|
①①口口
85
口口①① |①---|
口口||
口口||
①①∧∧
口口②②
口②口口 |--②-|
②口口口 |----|
口口口口
86
③④口口 |①---|
⑤口②口 |②-③④|
口口①口 |⑤-⑥-|
口口⑥口
87
口口口口 |①---|
口口口① |②---|
②口③口 |③---|
口③口口
88
①口口② |①---|
③④⑤⑥ |②--③④⑤|
口⑦口口 |⑥-⑦-|
口口口口
89
②口口③ |①---|
口口口口 |②---|
②口①③ |③---|
口口口口
90
③④口口 |①---|
⑤口口② |②-③④|
口口⑥口 |⑤-⑥-|
口①①口
91
口口口① |①---|
⑤口口口 |②-③-|
④口口口 |④-⑤-|
③口②口
92
①―<口 |①---|
口口口口 |--②-|
口②②口 |----|
口口口口
93
①口口∨ |①---|
口口口| |----|
口口口|
口口口①
口口口口
口口口口
口④⑤口 |②③④⑤|
口②③②
94
⑤④③② |①---|
口①口口 |---②③④|
口口口口 |⑤-⑥-|
口口⑥口
95
口口口口 |①---|
口口口口 |----|
①口口口 |②---|
口②口口
96
②③④⑤ |①---|
口口口① |---②③④|
口口口口 |⑤-⑥-|
口⑥口口
97
⑤口口口 |①---|
口口口④ |②-③-|
③口口① |④-⑤-|
口口口②
98
口①②口 |①②③④|
口③④口 |⑤-⑥-|
口⑤口口 |⑦-⑧-|
口⑦⑧⑥
99
口口口⑧ |①②③④|
①⑦口② |⑤-⑥-|
③口⑥④ |⑦-⑧-|
⑤口口口
100
⑨①口口 |①-②-③-|
口口②④ |④-⑤-⑥-|
⑤③⑧口 |⑦-⑧-⑨-|
口⑦口⑥
101
口口①⑦ |①-②-③-|
②⑥③⑤ |④-⑤-⑥-|
⑧口口⑨ |⑦-⑧-⑨-|
④口口口
102
②③④口 |①-②③|
口⑦⑥⑤ |④-⑤⑥|
口口⑧口 |⑦-⑧-|
口①①口
103
口口口① |①---|
口口口| |②---|
②口口|
口口口∧
口口口③
口口口口
口口口口 |③---|
③口口口
104
口⑦⑦口 |①-②③|
②③④口 |④-⑤⑥|
口口⑥⑤ |⑦-⑧-|
⑧①①口
105
口口口口 |①---|
口③口② |②---|
②口③口 |③---|
口口口①
106
⑤④③② |①--②③④|
口口⑥⑨ |⑤-⑥⑦|
口⑦口口 |⑧-⑨-|
①①⑧口
107
口口⑤口 |①---|
①口④口 |②-③-|
②口③口 |④-⑤-|
口口口口
108
口①口⑨ |①--②③④|
⑥⑦口口 |⑤-⑥⑦|
⑧口口口 |⑧-⑨-|
②③④⑤
109
①―<口 |①---|
口口口口
口口口口
口口口口
②口口口
口口④口 |--②-|
口③口口 |③-④-|
口口②口
110
口⑥口口 |①②③④|
②口口① |⑤-⑥-|
④⑧⑦③ |⑦-⑧-|
口口口⑤
111
口⑥③口 |①-②-|
④②①③ |③-④-|
⑥口口⑤ |⑤-⑥-|
④②口⑤
112
④口口① |①-②-③-|
口⑤②口 |④-⑤-⑥-|
口③⑥口 |⑦-⑧-⑨-|
⑨⑧⑦口
113
口①②③ |①-②-③-|
④⑨⑥⑦ |④-⑤-⑥-|
口⑤⑧口 |⑦-⑧-⑨-|
口口口口
114
∨∨∨∨ |①---|
|||| |----|
|||| |----|
①①①①
115
口口口口 |----|
口口口口 |----|
口口口口 |----|
口口口口
116
口口口口 |----|
口口口口 |----|
口口口口 |----|
口口口口
117
口口口口 |----|
口口口口 |----|
口口口口 |----|
口口口口
118
口口口口 |①---|
口口口口 |----|
口口口口 |----|
①①①①
不確定度: 0