FLOOR INFECTION Medley from SOUND VOLTEX×jubeat
United Composers from SOUND VOLTEX
EXTREME
Level: 10
BPM: 145-195
Notes: 932
BPM: 189
1
口口口口 |----|
口口口口 |----|
口口口口 |----|
①②③④ |①②③④|
2
①④口⑧ |①-②-|
⑦口③② |③-④-|
①④⑥⑤ |⑤-⑥-|
⑦口口口 |⑦-⑧-|
3
⑤⑦①口 |①-②-|
口②⑧⑥ |③-④-|
⑤⑦口口 |⑤-⑥-|
口②④③ |⑦-⑧-|
4
口口④① |①-②-|
②③口⑦ |③-④-|
⑧口④① |⑤-⑥-|
⑤⑥口⑦ |⑦-⑧-|
5
口口⑦⑤ |①-②-|
③④②口 |③-④-|
口①⑦⑤ |⑤-⑥-|
⑥⑧②口 |⑦-⑧-|
6
①④口口 |①-②-|
⑦口③② |③-④-|
①④口⑧ |⑤-⑥-|
⑦口⑥⑤ |⑦-⑧-|
7
⑤⑦口口 |①-②-|
口②④③ |③-④-|
⑤⑦①口 |⑤-⑥-|
口②⑧⑥ |⑦-⑧-|
8
口口④① |①-②-|
②③口⑦ |③-④-|
⑧口④① |⑤-⑥-|
⑤⑥口⑦ |⑦-⑧-|
9
口口口② |①-②-|
⑤③⑥口 |③-④-|
口①④口 |⑤-⑥-|
⑦⑧⑨⑩ |⑦⑧⑨⑩|
10
①①⑤② |①-②-|
④④口⑧ |③-④-|
口口⑥③ |⑤-⑥-|
⑦⑦口口 |⑦-⑧-|
11
②②⑥③ |①-②-|
⑤⑤口口 |③-④-|
口口⑧④ |⑤-⑥-|
⑦⑦口① |⑦-⑧-|
12
②⑤⑦⑦ |①-②-|
⑧口①① |③-④-|
③⑥口口 |⑤-⑥-|
口口④④ |⑦-⑧-|
13
③⑥⑦⑦ |①-②-|
口口②② |③-④-|
④⑧⑤⑤ |⑤-⑥-|
①口口口 |⑦-⑧-|
14
④口口口 |①②③-|
口⑦⑥⑤ |④-⑤⑥|
口口口口 |⑦-⑧-|
⑧③②①
15
口⑦⑥⑤ |①②③-|
④口口口 |④-⑤⑥|
⑧③②① |⑦-⑧-|
口口口口
16
口⑨口⑩ |①-②-|
口③口② |③-④-|
口⑤⑧④ |⑤-⑥-|
⑦①⑥口 |⑦⑧⑨⑩|
17
⑨口④口 |①②③④|
⑤⑥⑦⑧ |⑤⑥⑦⑧|
③口口口 |⑨---|
口①口② |----|
BPM: 195
18
口口口口 |----|
口口口口 |----|
口口口口 |----|
口口口口 |----|
19
⑤口口② |①---|
口③口口 |②---|
口口口口 |③---|
①口④口 |④-⑤-|
20
口口②口 |--①-|
口口口④ |②---|
口③③口 |③---|
口①口口 |--④-|
21
口口口② |①---|
口口⑤口 |②---|
口③③口 |③---|
①④口口 |④-⑤-|
22
②口④口 |--①-|
⑤口口口 |②---|
口③口⑥ |③-④-|
口口①口 |⑤-⑥-|
23
⑤口口② |①---|
口③口口 |②---|
口口口口 |③---|
①口④口 |④-⑤-|
24
口口②口 |--①-|
口口口④ |②---|
口③③口 |③---|
口①口口 |--④-|
25
口口口② |①---|
口口⑤口 |②---|
口③③口 |③---|
①④口口 |④-⑤-|
26
②口④口 |--①-|
⑤口口口 |②---|
口③⑥口 |③-④-|
口口①口 |⑤-⑥-|
27
⑦②④口 |①---|
⑤③口① |②-③-|
②⑦⑥④ |④-⑤-|
口⑤①⑥ |⑥-⑦-|
28
口②口④ |--①-|
⑤③⑥① |②-③-|
②口口④ |④-⑤-|
口⑤①⑥ |⑥---|
29
②口⑥④ |①---|
⑤③⑥口 |②-③-|
②⑦①④ |④-⑤-|
⑤⑦①口 |⑥-⑦-|
30
⑤②口口 |--①-|
⑤③⑥① |②-③-|
②⑦④④ |④-⑤-|
⑦口①⑥ |⑥-⑦-|
31
⑥口③⑦ |①-②-|
口④口① |③-④-|
⑧口口⑤ |⑤-⑥-|
口②口口 |⑦-⑧-|
32
口口⑤口 |①-②-|
④⑧①口 |③-④-|
口⑥口口 |⑤-⑥-|
②口⑦③ |⑦-⑧-|
33
口④口⑤ |①②③④|
⑧口①口 |⑤⑥⑦⑧|
⑥口口③
②口口⑦
⑫口⑨口
口⑭口⑪
口口⑬口 |⑨⑩⑪⑫|
⑯⑩⑮口 |⑬⑭⑮⑯|
34
口④口⑤ |①②③④|
⑧口①口 |⑤⑥⑦⑧|
⑥②口③
口口口⑦
⑫口⑨口
口⑭⑮⑪
口口⑬口 |⑨⑩⑪⑫|
⑯⑩口口 |⑬⑭⑮⑯|
35
口口口口 |①---|
口口口口 |----|
口口口口 |----|
口口①口 |----|
36
口口口口 |----|
口口口口 |----|
口口口口 |----|
口口口口 |----|
BPM: 195
37
口口⑩④ |①②③-|
⑤口口③ |④-⑤⑥|
⑦口口⑨ |⑦-⑧-|
②⑧⑥① |⑨-⑩-|
38
①⑩口口 |①②③-|
口④口⑤ |④-⑤⑥|
⑨⑥②口 |⑦-⑧-|
③⑧口⑦ |⑨-⑩-|
39
⑤口口⑨ |①②③-|
⑦口①④ |④-⑤⑥|
口⑩口⑥ |⑦-⑧-|
②⑧③口 |⑨-⑩-|
40
口口口口 |①---|
口口①口 |--②③|
口⑥③② |④---|
⑤口口④ |--⑤⑥|
41
②口口口 |①---|
口⑥口口 |--②-|
①口⑤③ |③-④-|
口④口口 |⑤-⑥-|
42
口⑥②① |①---|
⑤口④③ |--②③|
口口口口 |④---|
口口口口 |--⑤⑥|
43
①口口口 |①---|
口口口口 |--②-|
口②口口
口口口口
⑥口③口
口⑤口口
口口口口 |③-④-|
口口④口 |⑤-⑥-|
44
⑬⑩⑥② |①--②③④|
⑨⑪⑦③ |⑤--⑥⑦⑧|
⑤⑫⑧④ |⑨--⑩⑪⑫|
①⑬⑨⑤ |⑬---|
45
口口⑩① |①②③-|
⑤口⑥③ |④-⑤⑥|
⑦口口⑨ |⑦-⑧-|
②口⑧④ |⑨-⑩-|
46
①⑩口口 |①②③-|
口④口⑤ |④-⑤⑥|
⑨⑥②口 |⑦-⑧-|
③⑧口⑦ |⑨-⑩-|
47
⑤口口⑨ |①②③-|
⑦口①④ |④-⑤⑥|
口⑩口⑥ |⑦-⑧-|
②⑧③口 |⑨-⑩-|
48
口口口口 |①---|
口口①口 |--②③|
口⑥③② |④---|
⑤口口④ |--⑤⑥|
49
②口口口 |①---|
口⑥口口 |--②-|
①口⑤③ |③-④-|
口④口口 |⑤-⑥-|
50
口口②① |①---|
口口④③ |--②③|
⑥口口⑤ |④---|
口口口口 |--⑤⑥|
51
⑥②⑤① |①②③④|
⑫⑩⑨⑪ |⑤⑥⑦⑧|
⑯⑭⑬⑮ |⑨⑩⑪⑫|
⑧④⑦③ |⑬⑭⑮⑯|
52
⑦③⑤① |①②③④|
口口口口 |⑤⑥⑦⑧|
口口口口
⑧④⑥②
BPM: 145
口口口口
⑩⑨⑨⑩
⑩口口⑩ |⑨---|
口口口口 |⑩---|
53
口⑥①④ |①②③-|
⑥口口口 |④⑤-⑥|
口②口口
口口③⑤
⑨口⑩口
口⑪口⑧
⑦口⑫口 |-⑦⑧⑨|
口⑬口口 |⑩⑪⑫⑬|
54
口⑥⑦① |①②③④|
⑥口②⑦ |⑤⑥-⑦|
口③口口
④口口⑤
⑨口口⑫
口⑩⑪口
⑧口口⑬ |-⑧⑨⑩|
口⑭口口 |⑪⑫⑬⑭|
55
④②⑥口 |①②③-|
口口口⑥ |④⑤-⑥|
⑤口①口
口口③口
口⑨口⑧
⑦口口口
口⑪口⑩ |-⑦⑧⑨|
⑬口⑫口 |⑩⑪⑫⑬|
56
⑦口口口 |-①②③|
口①口⑥ |④⑤⑥⑦|
⑤口②口
口③口④
口⑩⑨⑧
口口口口
口口口口 |-⑧⑨⑩|
⑭⑫⑪⑬ |⑪⑫⑬⑭|
57
口⑥口④ |①②③-|
⑥口①口 |④⑤-⑥|
口②③⑤
口口口口
⑨口⑩口
口⑪口⑧
⑦口⑫口 |-⑦⑧⑨|
口⑬口口 |⑩⑪⑫⑬|
58
口⑥⑦① |①②③④|
⑥口②⑦ |⑤⑥-⑦|
口③口口
④口口⑤
⑨口口⑫
口⑩⑪口
⑧口口⑬ |-⑧⑨⑩|
口⑭口口 |⑪⑫⑬⑭|
59
④②⑥口 |①②③-|
口口口⑥ |④⑤-⑥|
⑤口①口
口口③口
⑬口口⑫
⑦口口口
口口口⑧ |-⑦⑧⑨|
⑨⑪⑩口 |⑩⑪⑫⑬|
60
口⑩⑤口 |①②③④|
⑩②①⑤ |⑤---|
⑧④③⑨ |⑥⑦⑧⑨|
⑥口口⑦ |⑩---|
BPM: 185
61
①口口① |①---|
口①①口 |----|
口口口口
口口口口
口③口口
口口⑤口
口④口口 |②-③-|
口口②口 |④-⑤-|
62
口③①口 |①---|
②口口④ |②---|
③口口① |③---|
口②④口 |④---|
63
①②口① |①---|
口口口⑤ |----|
④口口口 |②-③-|
口口口③ |④-⑤-|
64
②④③① |①---|
口口口口 |②---|
口口口口 |③---|
④②①③ |④---|
65
口③口口 |①---|
口口⑤口 |----|
①④口① |②-③-|
口口②口 |④-⑤-|
66
口⑤①口 |①-②-|
③④⑧⑦ |③-④-|
⑤⑥②① |⑤-⑥-|
口③⑦口 |⑦-⑧-|
67
①②口① |①---|
口口口⑤ |----|
④口口口 |②-③-|
口口口③ |④-⑤-|
68
③⑦⑤① |①-②-|
口⑧⑥口 |③-④-|
口④②口 |⑤-⑥-|
⑦③①⑤ |⑦-⑧-|
69
⑦⑨口⑥ |①-②③|
⑤口⑪④ |④⑤⑥⑦|
③⑩①② |⑧-⑨-|
口口⑧口 |⑩-⑪-|
70
口⑤①口 |①-②-|
③④⑧⑦ |③-④-|
⑤⑥②① |⑤-⑥-|
口③⑦口 |⑦-⑧-|
71
①―<口 |①|
口口口口
口口口口
口>―①
②⑦⑤③ |②--|
⑦④口⑥ |③-④-|
⑤口④口 |⑤-⑥-|
③⑥口② |⑦---|
72
①口口口 |①--②|
口口口口 |--③-|
③②口③
②口口①
⑧⑦⑥⑤
口④⑤口
口口④口 |-④--|
口口口口 |⑤⑥⑦⑧|
73
口口口口 |①---|
⑩⑥⑨⑥ |②③④⑤|
⑤⑧④⑦ |⑥---|
①③①② |⑦⑧⑨⑩|
74
②①③① |①---|
口④口⑤ |②③④⑤|
口口口口
口口口口
口⑨口⑩
⑦口⑧口
口口口口 |⑥---|
⑥口⑥口 |⑦⑧⑨⑩|
75
③⑧口⑨ |①---|
⑥口⑦④ |②-③-|
②口口口 |④-⑤-|
口①⑤① |⑥⑦⑧⑨|
76
口口②口 |①---|
口口口口 |②---|
口口②口
口①口①
③⑦口口
④⑧口口
⑤⑨口口 |③④⑤⑥|
⑥⑩口口 |⑦⑧⑨⑩|
BPM: 190
77
口口口口 |①---|
口口>① |----|
口口口①
口口口口
口口口⑥
口口口②
③⑤④口 |②---|
口口口口 |③④⑤⑥|
78
①①口口 |①---|
口⑤②口 |②③④⑤|
口口口口
口④③口
⑪⑪口口
⑨口口⑥
口⑪⑩口 |⑥⑦⑧⑨|
⑧口口⑦ |⑩-⑪-|
79
⑤⑤④① |--①-|
④②①④ |--②-|
②口口① |③④--|
③②⑥⑥ |⑤-⑥-|
80
④口口⑤ |①---|
口③③口 |②---|
②①①② |③--④|
④口口⑤ |--⑤-|
81
口②⑧⑦ |①--②|
②④④③ |--③-|
②①①③ |④---|
⑤⑥③口 |⑤⑥⑦⑧|
82
口口口口 |①--②|
②口口口 |--③-|
口②③③
口口口①
④口口口
|④⑤口
∧口口口 |④-⑤-|
口口口口
⑥口口口
口口口口
口口口口
⑥⑦⑧⑨ |⑥⑦⑧⑨|
83
口①②口 |①--②|
③③口② |--③-|
①口口口
口口口口
⑤口口④
口口④|
口口口∧ |④-⑤-|
口口口口
口口口⑥
口口口口
⑨⑧⑦⑥
口口口口 |⑥⑦⑧⑨|
84
⑪⑩⑨⑧ |①-②-|
③④⑤⑥ |③④⑤⑥--|
口⑭⑬⑫ |⑦--⑧⑨⑩|
②⑦口① |⑪--⑫⑬⑭|
85
口口口口 |①---|
②口口口 |--②③|
①口口口 |④---|
口④③⑤ |⑤---|
86
①―<口 |①---|
口①口口
口口口口
口口口口
②>―③
口口③口 |②---|
口口口口 |③---|
②口口口
口口口④
口口口口
口口口口
口口口④ |④---|
87
口①<口 |①---|
①口口口
口口口口
口口口口
口②口口
口口口口 |②---|
口口口口
口②口口
口>③口
口口口③
口口口口 |③---|
口口口口
口口④口
口口口口
口口口口
口口④口 |④---|
88
①―<口 |①---|
口①口口
口口口口
口口口口
②>―③
口口③口 |②---|
口口口口 |③---|
②口口口
口口口④
口口口口
口口口口
口口口④ |④---|
89
口①<口 |①---|
口口口口
口①口口
口口口口
口②口口
口口口口 |②---|
②口口口
口②口口
口>③口
口口口口
口口③口 |③---|
口口口口
口口④口
口口口口
口口口④
口口④口 |④---|
90
①―<口 |①-②-|
口①口口
②口口口
口口口口
③>―⑤
口口⑤口 |③-④-|
口④口⑥ |⑤-⑥-|
③口口口
口口口⑦
口口口口
口口⑧口
口口口⑦ |⑦-⑧-|
91
口①<口 |①-②-|
①口口口
②口口口
口口口口
口③口口
口口口口 |③-④-|
口④口口
口③口口
口>⑤口
口口口⑤
口口口⑥ |⑤-⑥-|
口口口口
口口⑦口
口口口口
口口⑧口
口口⑦口 |⑦-⑧-|
92
①⑤⑧⑦ |①-②-|
④口⑥口 |③-④-|
口③口口 |⑤-⑥-|
②口口口 |⑦-⑧-|
93
口口口口 |①-②-|
口口口① |③-④-|
口口口口
口③④②
∨∨∨∨
||||
⑧⑦⑥⑤ |⑤-⑥-|
口口口口 |⑦-⑧-|
94
口口口口 |①---|
口口口口
①①①①
口口口口
②口口②
|口口| |②---|
|口口| |----|
∧口口∧ |----|
95
①口口① |----|
口口口口 |----|
⑤④③② |--①-|
口口口口 |②③④⑤|
96
口∨∨口 |①---|
口||口 |----|
口||口 |----|
口①①口 |----|
97
口口口口 |----|
口口口口 |----|
口口口口 |----|
口口口口 |----|
98
口口口口 |①---|
口口口口 |----|
口口口口 |----|
口①①口 |----|
不確定度: 0