蟲の棲む処
かめりあ feat. Nana Takahashi

ADVANCED

Level: 8
BPM: 161.5
Notes: 500

1
口口口口 |----|
口口口口 |----|
口口口口 |----|
口口口口 |----|
2
口口口口 |----|
口口口口 |----|
口口口口 |----|
口口口口 |----|
3
口口口口 |----|
②口口① |----|
②口口① |----|
口口口口 |①-②-|
4
⑤①①口 |①---|
口口②口 |--②③|
口③口口 |④---|
口口④口 |⑤---|
5
口口口口 |①---|
口口口① |②---|
②口口口 |----|
口③口口 |③---|
6
口①①口 |①---|
⑤口②口 |--②③|
口③口口 |④---|
口口④口 |⑤---|
7
口③③口 |①---|
口口口口 |②---|
口⑤口② |③---|
①口④口 |--④⑤|
8
口口口⑤ |①---|
口②①① |--②③|
口口③口 |④---|
口④口口 |⑤---|
9
口口口口 |①---|
①口口口 |②---|
③口口② |----|
口③口口 |③---|
10
口口①② |①---|
口⑤③① |②-③-|
口④⑥口 |④---|
口口口口 |--⑤⑥|
11
⑤口口口 |①---|
口口④⑥ |--②③|
⑦③口口 |④-⑤-|
口①②口 |⑥-⑦-|
12
口口口口 |①---|
口口口口 |②---|
口口口口 |③---|
④③②① |④---|
13
口⑤⑤口 |①---|
口④④口 |②---|
①②③口 |③---|
口口口口 |④-⑤-|
14
口口口② |①---|
口口口② |②---|
口口口口
口①①口

⑦口口口
⑦③④口
口⑤⑥口 |③④⑤⑥|
口⑧口口 |⑦-⑧-|
15
⑥⑥口② |①-②-|
⑦⑦口口 |③-④-|
⑧⑧口③ |⑤⑥-⑦|
④口①⑤ |-⑧--|
16
⑦③④② |①---|
口⑤⑥口 |②---|
口口口② |③④⑤⑥|
口①①口 |⑦---|
17
⑯⑮⑭⑬ |①②③④|
⑫⑪⑩⑨ |⑤⑥⑦⑧|
⑧⑦⑥⑤ |⑨⑩⑪⑫|
④③②① |⑬⑭⑮⑯|
18
口口口口 |①---|
口口口② |②---|
口口口口
口①①口

口口口口
⑦③④口
口⑤⑥口 |③④⑤⑥|
口⑧口口 |⑦-⑧-|
19
⑥⑥口② |①-②-|
⑦⑦口口 |③-④-|
⑧⑧口③ |⑤⑥-⑦|
④口①⑤ |-⑧--|
20
⑦③④② |①---|
口⑤⑥② |②---|
口口口① |③④⑤⑥|
口口①口 |⑦---|
21
⑯⑮⑭⑬ |①②③④|
⑫⑪⑩⑨ |⑤⑥⑦⑧|
⑧⑦⑥⑤ |⑨⑩⑪⑫|
④③②① |⑬⑭⑮⑯|
22
⑤口口口 |①---|
口⑥③口 |--②-|
口④口② |③-④-|
口①①口 |⑤-⑥-|
23
⑤口①口 |①---|
口⑥③口 |--②-|
口④口② |③-④-|
口口口口 |⑤-⑥-|
24
口口①口 |①---|
口口口口 |--②-|
口口②口 |③---|
口③口口 |----|
25
口口口口 |----|
口口口口 |----|
口①②口 |①---|
①②口口 |②---|
26
口口口口 |①---|
②口④口 |--②-|
口③⑥① |③-④-|
口口①⑤ |⑤-⑥-|
27
口口口口 |①---|
②口④口 |--②-|
口③⑥口 |③-④-|
口①口⑤ |⑤-⑥-|
28
口口口口 |①---|
口口②口 |--②-|
④③口口 |③---|
口①口口 |--④-|
29
口口③口 |①---|
口③口口 |--②-|
口②口口 |③---|
口①②口 |----|
30
②口口口 |①---|
口口口口 |----|
①口口① |②---|
口口口② |----|
31
口口③① |①---|
口口口③ |----|
②口口口 |----|
①②口口 |②-③-|
32
口口⑤口 |①---|
②口口⑤ |--②③|
口①①③ |④---|
④口口口 |⑤---|
33
①口口口 |①---|
口①口③ |②---|
口②口② |----|
②口②③ |③---|
34
①口口⑤ |①---|
口②口口 |--②③|
①口③口 |④---|
口④口口 |⑤---|
35
①①口口 |①---|
①③③④ |②---|
⑤③③② |③---|
口口②② |--④⑤|
36
口口口⑤ |①---|
口②口口 |--②③|
口口③⑤ |④---|
口④口① |⑤---|
37
口②口口 |①---|
口口①口 |②---|
③②口口 |----|
口③①口 |③---|
38
①①口② |①---|
口⑤③口 |②-③-|
口④⑥口 |④---|
口口口口 |--⑤⑥|
39
④口口② |①---|
口⑤③⑥ |--②-|
④口口② |③-④-|
口①口⑥ |⑤-⑥-|
40
④①口② |①---|
口④②口 |②---|
口①口③ |③---|
口口③口 |④---|
41
口口口口 |①---|
口口口口 |--②-|
①口口口
口①口②

④口④口
口口口口
⑤口⑤③ |③--④|
口口口口 |--⑤-|
42
口口口② |①-②-|
口①口口 |----|
口口口口 |----|
③口口口 |--③-|
43
口口口口 |①-②-|
②口口口 |----|
①口口口 |----|
口口口口 |----|
44
口口②口 |----|
口口口② |①---|
口③①口 |②---|
③口口① |③---|
45
④①④口 |①---|
①口口口 |--②-|
⑤口⑤③ |③--④|
口口口② |--⑤-|
46
口⑤口③ |①--②|
口①①口 |--③-|
口口口口 |④--⑤|
④⑥②口 |--⑥-|
47
口⑤口② |①--②|
⑤口④口 |--③-|
口口③④ |④---|
口口①③ |⑤---|
48
口口口口 |①---|
口口口口 |②---|
口①口口 |③---|
①②③④ |④---|
49
口口口口 |①---|
口口口口 |②---|
口口口口 |③---|
①②③④ |④---|
50
口口口口 |①---|
口口口口 |②---|
口口口口 |③---|
①②③④ |④---|
51
口口口口 |①---|
口④④口 |②---|
口⑤⑤口 |③---|
①②③口 |④-⑤-|
52
①⑤③① |①---|
⑤口口③ |②-③-|
⑥⑦⑦⑥ |④-⑤-|
④④②② |⑥-⑦-|
53
④⑤⑤② |①-②-|
⑥④②⑥ |③-④-|
口口口口 |⑤---|
③③①① |⑥---|
54
⑤口口③ |①---|
⑥⑤③⑥ |②-③-|
④④②② |④-⑤-|
①口口① |⑥---|
55
⑯⑮⑭⑬ |①②③④|
⑫⑪⑩⑨ |⑤⑥⑦⑧|
⑧⑦⑥⑤ |⑨⑩⑪⑫|
④③②① |⑬⑭⑮⑯|
56
口口口口 |①---|
口口口③ |②-③-|
口口②③
①口②①

口⑥⑥口
⑤口口口
⑤④口口 |④-⑤-|
⑦④口⑦ |⑥-⑦-|
57
④⑤⑤② |①-②-|
口④②口 |③-④-|
口⑥⑥口 |⑤---|
口③①口 |⑥---|
58
②②②② |①---|
⑥⑤⑤⑥ |②-③-|
③④④③ |④-⑤-|
口①①口 |⑥---|
59
⑯⑮⑭⑬ |①②③④|
⑫⑪⑩⑨ |⑤⑥⑦⑧|
⑧⑦⑥⑤ |⑨⑩⑪⑫|
④③②① |⑬⑭⑮⑯|
60
口口口⑤ |①--②|
口口口口 |--③-|
③②④① |-④--|
②③①④ |⑤---|
61
④①口④ |①--②|
①口口口 |--③-|
口②口口 |④---|
②③③口 |----|
62
③口②⑤ |①--②|
口③⑤② |--③-|
④⑤①口 |-④--|
⑤④口① |⑤---|
63
③③①口 |①--②|
③③口① |--③-|
口口②口
口口口②

口口⑤口
口口口⑤
④口口口 |----|
口④口口 |④--⑤|
64
口③④④ |--①-|
③口④④ |----|
口②①① |②--③|
②口①① |--④-|
65
口口口口 |---①|
口口口口 |----|
①口口口 |----|
口①口口 |----|
66
口口口口 |----|
①口口口 |-----①--|
口①口口 |----|
口口口口 |----|

不確定度: 0

最終更新:2017年08月15日 01:08