LOSER
米津玄師

EXTREME

Level: 9
BPM: 121
Notes: 782

1
口口口口 |----|
口口口口 |----|
口口口口 |----|
口口口口 |----|
2
⑧口口⑧ |①-②-|
②⑤⑤④ |③-④-|
口⑥⑥口 |⑤-⑥-|
①⑦⑦③ |⑦-⑧-|
3
⑧口口⑧ |①-②-|
②⑤⑤④ |③-④-|
口⑥⑥口 |⑤-⑥-|
①⑦⑦③ |⑦-⑧-|
4
⑧口口⑧ |①-②-|
②⑤⑤④ |③-④-|
口⑥⑥口 |⑤-⑥-|
①⑦⑦③ |⑦-⑧-|
5
⑦⑧⑧⑦ |①-②-|
①⑤⑤③ |③-④-|
口⑥⑥口 |⑤-⑥-|
②口口④ |⑦-⑧-|
6
⑧口口⑧ |①-②-|
②⑤⑤④ |③-④-|
口⑥⑥口 |⑤-⑥-|
①⑦⑦③ |⑦-⑧-|
7
⑧口口⑧ |①-②-|
②⑤⑤④ |③-④-|
口⑥⑥口 |⑤-⑥-|
①⑦⑦③ |⑦-⑧-|
8
⑧口口⑧ |①-②-|
②⑤⑤④ |③-④-|
口⑥⑥口 |⑤-⑥-|
①⑦⑦③ |⑦-⑧-|
9
⑦⑧⑧⑦ |①-②-|
①⑤⑤③ |③-④-|
口⑥⑥口 |⑤-⑥-|
②口口④ |⑦-⑧-|
10
⑧口口⑧ |①-②-|
②⑤⑤④ |③-④-|
口⑥⑥口 |⑤-⑥-|
①⑦⑦③ |⑦-⑧-|
11
⑧口口⑧ |①-②-|
②⑦⑦④ |③-④-|
口⑥⑥口 |⑤-⑥-|
①⑤⑤③ |⑦-⑧-|
12
口②②口 |①--②-③|
①⑤⑤① |④--⑤-⑥|
①③口①
口⑥④口

⑨口口⑧
口口⑪口
口⑩⑦口 |⑦--⑧-⑨|
口口口口 |--⑩--⑪|
13
口口口口 |①-②③-④|
⑦⑥口① |⑤-⑥⑦-⑧|
口口④⑤
口⑧②③

口⑪口口
口⑫⑫口
⑩⑨口口 |--⑨⑩--|
口口口口 |⑪--⑫--|
14
口③口口 |①-----|
口口口口 |②----③|
②口口②
①口口①

④口⑤⑥
口口口口
口⑦口口 |④-⑤⑥-⑦|
⑧口口⑧ |---⑧--|
15
口⑤⑤口 |①--②--|
①④④① |③--④--|
口③③口 |⑤-----|
口②②口 |------|
16
④③⑤⑥ |①-----|
②⑧口② |②----③|
①⑨口① |④-⑤⑥-⑦|
①⑦口① |--⑧--⑨|
17
⑤④⑥⑦ |①-②③-④|
口口口口 |⑤-⑥⑦-⑧|
①口②③
口⑧口口

口⑫⑫口
⑨口口⑪
口口口口 |--⑨⑩--|
口口⑩口 |⑪--⑫--|
18
③口口④ |①--②--|
口①②口 |③--④--|
口③④口
①口口②

口⑥⑥口
⑦⑧⑧⑦
⑦口口⑦ |⑤--⑥--|
口⑤⑤口 |⑦--⑧--|
19
②④④② |①--②--|
口口口口 |③--④--|
口口口口
①③③①

⑥口口⑦
口口口口
口⑤⑤口 |⑤-----|
⑥口口⑦ |⑥--⑦--|
20
口口口口 |------|
②口口口 |①--②--|
②口口口
口①①口

口③③口
口⑥⑥④
口⑤⑤④ |③--④--|
口⑦口口 |⑤--⑥-⑦|
21
口③③② |①-②---|
口口口④ |③--④--|
口口口④
①口口口

口口⑨口
⑥⑦⑦口
⑥⑧⑧口 |⑤--⑥--|
口⑤⑤口 |⑦--⑧-⑨|
22
②⑨口① |①-②---|
⑦口口⑧ |③--④--|
⑤口口⑥ |⑤--⑥--|
③口口④ |⑦--⑧-⑨|
23
①口②③ |①-②③--|
口口口口 |------|
口口口口 |------|
口口口口 |------|
24
④⑥⑥④ |------|
③口口③ |①--②--|
②⑦口② |③--④--|
①⑤⑤① |⑤--⑥-⑦|
25
③口口③ |①-②---|
⑤④口口 |③-④⑤-⑥|
①口⑥②
口口口口

口口⑩口
口口口口
⑨口口口 |---⑦--|
⑦口口⑧ |⑧--⑨-⑩|
26
⑤④口① |①-②---|
口②⑥口 |③-④⑤-⑥|
口口口口
口③③口

口口⑩⑪
⑫口口⑦
⑨⑧口口 |⑦-⑧⑨-⑩|
口口口口 |⑪--⑫--|
27
③口口④ |①-----|
④①②③ |②-----|
③②①④ |③--④--|
⑤①②⑤ |⑤-----|
28
②④③口 |①--②--|
口①③口 |③--④--|
②④③③
口①④④

口口⑧口
⑤⑦口⑤
口⑨口口 |⑤--⑥-⑦|
⑥⑥口口 |--⑧--⑨|
29
口②口口 |①--②-③|
口⑤⑥口 |④--⑤--|
①口③④ |⑥--⑦-⑧|
口⑦口⑧ |------|
30
⑥⑧⑧③ |①--②--|
⑤⑥③② |③--④--|
④⑤②① |⑤--⑥--|
⑦④①⑦ |⑦--⑧--|
31
口⑥⑥口 |①----②|
口口②③ |③--④--|
口④④口 |⑤--⑥--|
⑤①①⑤ |------|
32
②④③口 |①--②--|
口①③口 |③--④--|
②④③③
口①④④

口口⑧口
⑤⑦口⑤
口⑨口口 |⑤--⑥-⑦|
⑥⑥口口 |--⑧--⑨|
33
①③④② |①--②--|
③口口④ |③--④--|
①口口②
口口口口

口口口口
口口口口
⑦⑤⑤⑦ |⑤-----|
⑥口口⑥ |⑥--⑦--|
34
口口口口 |①-----|
①口口① |---②--|
口口口口
口②②口

口口⑤口
④口口④
③口口③ |③--④-⑤|
⑥口口⑥ |---⑥--|
35
口⑥⑥③ |①--②-③|
口②②口 |---④--|
⑤①①⑤ |⑤--⑥--|
口④④口 |------|
36
②口②口 |①-----|
①口①口 |②----③|
②口②口
口①③①

⑦口口⑦
⑤口口⑤
口口口④ |④--⑤--|
⑥口口⑥ |⑥--⑦--|
37
口口口口 |①-②③-④|
⑦⑥⑧口 |⑤-⑥⑦-⑧|
③②④⑤
口①①口

⑩口⑪⑫
口口口⑨
口⑬口口 |⑨--⑩-⑪|
口口口口 |⑫-⑬---|
38
②口②口 |①-----|
①口①口 |②----③|
②口②口
口①③①

⑦口口⑦
⑤口口⑤
口口口④ |④--⑤--|
⑥口口⑥ |⑥--⑦--|
39
⑩⑨⑪⑫ |①--②-③|
⑥⑤⑦⑧ |④-⑤⑥-⑦|
②⑬③④ |⑧-⑨⑩-⑪|
口①①口 |⑫-⑬---|
40
②口②口 |①-----|
①口①口 |②----③|
②口②口
口①③①

⑦口口⑦
⑤口口⑤
口口口④ |④--⑤--|
⑥口口⑥ |⑥--⑦--|
41
口口口口 |①-②③-④|
⑦⑥⑧口 |⑤-⑥⑦-⑧|
③②④⑤
口①①口

⑩口⑪⑫
口口口⑨
口⑬口口 |⑨--⑩-⑪|
口口口口 |⑫-⑬---|
42
②口②口 |①-----|
①口①口 |②----③|
②口②口
口①③①

⑦口口⑦
⑤口口⑤
口口口④ |④--⑤--|
⑥⑧口⑥ |⑥--⑦-⑧|
43
口⑤③口 |①-②③-④|
⑧④②口 |⑤-⑥⑦-⑧|
口①口⑦
口口口⑥

⑨口口口
口⑬口⑭
口⑫⑪口 |⑨-⑩⑪-⑫|
口口⑩口 |⑬-⑭---|
44
②口②口 |①-----|
①口①口 |②----③|
②口②口
口①③①

⑦⑧口⑦
⑤口口⑤
口口口④ |④--⑤--|
⑥口口⑥ |⑥--⑦-⑧|
45
口口口口 |①-②③-④|
口①口口 |⑤-⑥⑦-⑧|
⑧④②⑥
口⑤③⑦

口⑪口⑬
口⑫口⑩
口口口口 |⑨--⑩-⑪|
⑨口口口 |⑫-⑬---|
46
②口②口 |①-----|
①口①口 |②----③|
②口②口
口①③①

⑦口口⑦
⑤口口⑤
口口口④ |④--⑤--|
⑥⑧口⑥ |⑥--⑦-⑧|
47
口⑤③口 |①-②③-④|
⑧④②口 |⑤-⑥⑦-⑧|
口①⑦口
口口⑥口

⑨口口⑩
口⑫口口
口⑪口⑬ |⑨--⑩-⑪|
口口口口 |⑫-⑬---|
48
②口②口 |①-----|
①口①口 |②----③|
②口②口
口①③①

⑦口口⑦
⑤⑧口⑤
口口口④ |④--⑤--|
⑥口口⑥ |⑥--⑦-⑧|
49
口①②口 |①-②③-④|
口口③口 |⑤-⑥⑦--|
口⑤口⑥
口④口⑦

⑨⑪⑨⑪
口口口口
⑩口⑩口 |⑧--⑨-⑩|
⑧口⑧口 |--⑪---|
50
②口②口 |①-----|
①口①口 |②----③|
②口②口
口①③①

⑦口口⑦
⑤口口⑤
口口口④ |④--⑤--|
⑥口口⑥ |⑥--⑦--|
51
③口口④ |①-----|
④①②③ |②-----|
③②①④ |③--④--|
⑤①②⑤ |⑤-----|
52
②④③口 |①--②--|
口①③口 |③--④--|
②④③③
口①④④

口口⑧口
⑤⑦口⑤
口⑨口口 |⑤--⑥-⑦|
⑥⑥口口 |--⑧--⑨|
53
口②口口 |①--②-③|
口⑤⑥口 |④--⑤--|
①口③④ |⑥--⑦-⑧|
口⑦口⑧ |------|
54
⑥⑧⑧③ |①--②--|
⑤⑥③② |③--④--|
④⑤②① |⑤--⑥--|
⑦④①⑦ |⑦--⑧--|
55
口⑥⑥口 |①----②|
口口②③ |③--④--|
口④④口 |⑤--⑥--|
⑤①①⑤ |------|
56
②④③口 |①--②--|
口①③口 |③--④--|
②④③③
口①④④

口口⑧口
⑤⑦口⑤
口⑨口口 |⑤--⑥-⑦|
⑥⑥口口 |--⑧--⑨|
57
①③④② |①--②--|
③口口④ |③--④--|
①口口②
口口口口

口口口口
口口口口
⑦⑤⑤⑦ |⑤-----|
⑥口口⑥ |⑥--⑦--|
58
口口口口 |①-----|
①口口① |---②--|
口口口口
口②②口

口口⑤口
④口口④
③口口③ |③--④-⑤|
⑥口口⑥ |---⑥--|
59
口口口③ |①--②-③|
口②②口 |---④--|
口①①口
口④④口

⑦⑥⑥⑦
口口口口
⑤⑦⑦⑤ |⑤--⑥--|
口口口口 |⑦-----|

不確定度: 0

最終更新:2017年08月13日 13:25