ペンパイナッポーアッポーペン
ピコ太郎
BASIC
Level: 3
BPM: 136
Notes: 92
1
口口口口 |----|
口口口口 |----|
口口口口 |----|
口口口口 |----|
2
口口口口 |①---|
口①①口 |----|
口口口口 |----|
口口口口 |----|
3
口口口口 |①---|
②口口② |----|
口①①口 |②---|
口口口口 |----|
4
④口口② |①---|
口口口口 |②---|
口①③口 |③---|
口口口口 |④---|
5
④口口② |①---|
口口口口 |②---|
口①③口 |③---|
口口口口 |④---|
6
④口口② |①---|
口口口口 |②---|
口①③口 |③---|
口口口口 |④---|
7
口口口② |①---|
口口口口 |②---|
口①口口 |----|
口口口口 |----|
8
口口口口 |----|
①口口口 |----|
①口口口 |①---|
口口口口 |----|
9
口口口口 |----|
口①①口 |----|
口①①口 |①---|
口口口口 |----|
10
口口口口 |----|
口口口口 |----|
口口口口 |①|
>①①<
口口口口
口口口口
口口口口 |②--|
口②②口 |----|
11
口口口口 |①---|
口①①口 |--②-|
口①①口 |----|
口②口口 |----|
12
口口口口 |----|
口口口① |----|
口口口① |①---|
口口口口 |----|
13
口口口口 |----|
口①①口 |----|
口①①口 |①---|
口口口口 |----|
14
口口口口 |----|
口口口口 |----|
口口口口 |①|
>①①<
口口口口
口口口口
口口口口 |②--|
口②②口 |----|
15
口口口口 |①---|
口①①口 |--②-|
口①①口 |----|
口口②口 |----|
16
①①口口 |①---|
①①口口 |--②-|
②口口口 |----|
口口口口 |----|
17
口口①① |①---|
口口①① |--②-|
口口口② |----|
口口口口 |----|
18
口口口口 |----|
>①①< |----|
口口口口 |①|
口口口口
口口口口
口②②口
口口口口 |②--|
口口口口 |----|
19
口口口口 |①---|
④③②① |②---|
口③②口 |③---|
口口口口 |④---|
20
④口口口 |①---|
口口口② |②---|
口口③口 |③---|
口①口口 |④---|
21
③口口③ |①---|
口①①口 |②---|
②口口② |----|
口口口口 |③---|
22
口③③口 |①---|
口①①口 |②---|
②口口② |③---|
口口口口 |----|
23
口口口口 |①---|
④③②① |②---|
口③②口 |③---|
口口口口 |④---|
不確定度: 1