そこはかとなくロマンセ
日向美ビタースイーツ♪

BASIC

Level: 2
BPM: 140
Notes: 172

1
口口口口 |----|
口口口口 |----|
口口口口 |----|
口口口口 |----|
2
口口口口 |①---|
口口口口 |----|
口口口口 |----|
口①口口 |----|
3
口口口口 |①---|
口口口口 |----|
口口口口 |----|
口口①口 |----|
4
口口口口 |①---|
口口口口 |----|
口口口口 |----|
口口口① |----|
5
口口口口 |①---|
口②②口 |----|
口①①口 |②---|
口口口口 |----|
6
口口②① |①---|
口口口口 |----|
口口口口 |②---|
口口口口 |----|
7
②①口口 |①---|
口口口口 |----|
口口口口 |②---|
口口口口 |----|
8
口口口口 |①---|
①②口口 |----|
口口口口 |②---|
口口口口 |----|
9
口口口口 |①---|
口口①② |----|
口口口口 |②---|
口口口口 |----|
10
口口口口 |①---|
口口口口 |----|
口口②① |②---|
口口口口 |----|
11
口口口口 |①---|
口口口口 |----|
②①口口 |②---|
口口口口 |----|
12
口口口口 |①---|
口①①口 |----|
口②②口 |②---|
口口口口 |----|
13
口口口口 |①---|
口口口口 |----|
①口口① |②---|
②口口② |----|
14
口口口口 |①---|
口口口② |----|
口①①口 |②---|
口口口口 |----|
15
口口口口 |①---|
口②①口 |----|
口口口口 |②---|
口口口口 |----|
16
口口口口 |①---|
①口口口 |----|
②口口口 |②---|
口口口口 |----|
17
口口口口 |①---|
口口口口 |----|
口①②口 |②---|
口口口口 |----|
18
口口口② |①---|
口①①口 |----|
口口口口 |②---|
口口口口 |----|
19
口②①口 |①---|
口口口口 |----|
口口口口 |②---|
口口口口 |----|
20
①口口口 |①---|
②口口口 |----|
口口口口 |②---|
口口口口 |----|
21
口口口口 |①---|
口口口口 |----|
口①①口 |----|
口口口口 |----|
22
口口口口 |①---|
口①①口 |----|
口口口口 |----|
口口口口 |----|
23
口口口口 |①---|
口口口① |----|
口口口② |②---|
口口口口 |----|
24
口口口口 |①---|
口①①口 |----|
口口口口 |----|
口口口口 |----|
25
口口口口 |①---|
①口口口 |----|
②口口口 |②---|
口口口口 |----|
26
口口口口 |①---|
口①口口 |----|
口②口口 |②---|
口口口口 |----|
27
口口口口 |①---|
口口①口 |----|
口口②口 |②---|
口口口口 |----|
28
口口口口 |①---|
口①①口 |----|
口②②口 |②---|
口口口口 |----|
29
口口口口 |①---|
口口口口 |----|
口口口口 |----|
口①①口 |----|
30
口口口口 |①---|
口口口口 |----|
口口口② |②---|
口口口① |----|
31
口口口② |①---|
口口口① |----|
口口口口 |②---|
口口口口 |----|
32
口口口口 |①---|
口口口口 |----|
口口②口 |②---|
口口①口 |----|
33
②口口② |①---|
③口①③ |----|
口口口口 |②---|
口口口口 |③---|
34
口口口口 |①---|
口口口口 |----|
口①①口 |②---|
口②②口 |----|
35
口口口口 |①---|
口口口口 |----|
口①①口 |②---|
口②②口 |----|
36
口口口口 |----|
口③口口 |①---|
口口②口 |②---|
口①口口 |③---|
37
口①①口 |①---|
口②②口 |--②-|
口③③口 |----|
口口口口 |③---|
38
口口口口 |--①-|
口口口口 |----|
②②②② |②---|
口①①口 |----|
39
口口口口 |----|
口口口口 |----|
口口口口 |----|
口口口口 |----|
40
④口口口 |①---|
③口口口 |②---|
②口口口 |③---|
①口口口 |④---|
41
口①口口 |①---|
口②口口 |②---|
口③口口 |③---|
口④口口 |④---|
42
口口④口 |①---|
口口③口 |②---|
口口②口 |③---|
口口①口 |④---|
43
口口口① |①---|
口口口② |②---|
口口口③ |③---|
口口口④ |④---|
44
口口口口 |①---|
口口口口 |----|
口①①口 |②---|
口②②口 |----|
45
口口口口 |①---|
口口口口 |----|
口①①口 |②---|
口②②口 |----|
46
口口口口 |①---|
口口口口 |②---|
④③②① |③---|
口口口口 |④---|
47
口口口口 |①---|
口口口口 |----|
口②②口 |②---|
口①①口 |----|
48
口口口④ |①---|
口口口③ |②---|
口口口② |③---|
口口口① |④---|
49
口口①口 |①---|
口口②口 |②---|
口口③口 |③---|
口口④口 |④---|
50
口④口口 |①---|
口③口口 |②---|
口②口口 |③---|
口①口口 |④---|
51
①口口口 |①---|
②口口口 |②---|
③口口口 |③---|
④口口口 |④---|
52
口口口口 |①---|
口②②口 |----|
口①①口 |②---|
口口口口 |----|
53
口口口口 |①---|
②口口② |----|
①口口① |②---|
口口口口 |----|
54
口口口口 |----|
口口①口 |①---|
口②口口 |②---|
口口口口 |----|
55
口口④口 |①---|
口口③口 |②---|
口口②口 |③---|
口口①口 |④---|
56
①①口② |①---|
口口口口 |----|
口口口口 |②---|
口口口口 |----|
57
口②①口 |①---|
口口口口 |----|
口口口口 |②---|
口口口口 |----|
58
口口口口 |①---|
口①①口 |--②-|
口③③口 |----|
口②②口 |--③-|
59
口口口口 |----|
口口口口 |----|
口口口口 |--①-|
口①①口 |----|

不確定度: 0

最終更新:2017年03月29日 17:18