コイノチカラ
石阪久美子

EXTREME

Level: 8
BPM: 162
Notes: 524

1
口口口口 |----|
口口口口 |----|
口口口口 |----|
口口口口 |----|
2
口口口口 |①②③④|
口⑤口口 |⑤---|
口③④口 |----|
口①②口 |----|
3
口口口口 |①---|
口口口口 |--②-|
口③④口 |③---|
①②口口 |--④-|
4
口口口② |①---|
③④⑤⑥ |----|
口口口① |--②-|
口口口口 |③④⑤⑥--|
5
口口口口 |①---|
口口口口 |--②-|
①③②口 |③---|
口⑤④口 |④-⑤-|
6
④口口口 |----|
口③②口 |----|
口口口① |①②③-|
口口口口 |④---|
7
口口口口 |①---|
口口口口 |--②-|
口③④口 |③---|
①②口口 |--④-|
8
口口口② |①---|
③④⑤⑥ |----|
口口口① |--②-|
口口口口 |③④⑤⑥--|
9
①③②④ |①-②-|
口口⑤口 |--③-|
⑥口口口 |--④-|
口口口口 |⑤-⑥-|
10
口口口口 |①-②-|
口口口② |③---|
口①③口 |----|
口口口口 |----|
11
口口口口 |--①-|
⑤⑥⑦口 |②-③-|
口④③口 |④-⑤-|
口①②口 |⑥-⑦-|
12
①②③④ |①-②-|
口口口口 |③-④-|
口口口口
口口口口

⑨⑩口口
口口口⑤
口口口口 |⑤⑥⑦⑧|
⑧⑦⑥⑤ |⑨-⑩-|
13
口口口口 |①---|
①②③口 |②-③-|
⑥⑤④口 |④---|
口口口口 |⑤-⑥-|
14
口口口口 |--①-|
口口口口 |②-③-|
口口口口 |----|
③口②① |----|
15
口口口口 |--①-|
⑤⑥⑦口 |②-③-|
口④③口 |④-⑤-|
口①②口 |⑥-⑦-|
16
①②③④ |①-②-|
口口口口 |③-④-|
口口口口
口口口口

⑨⑩口口
口口口⑤
口口口口 |⑤⑥⑦⑧|
⑤⑥⑦⑧ |⑨-⑩-|
17
口口口口 |①---|
①②③口 |②-③-|
⑥⑤④口 |④---|
口口口口 |⑤-⑥-|
18
③③②口 |--①-|
口①口口 |②---|
口口口口 |③---|
口口口口 |----|
19
口口口口 |①-②-|
口①②③ |③-④-|
口口口④ |--⑤-|
口⑤⑥⑦ |⑥-⑦-|
20
口口①口 |--①-|
③②口口 |②-③-|
口④口口 |--④-|
口⑤口口 |⑤---|
21
口口口① |①-②-|
口口口② |③-④-|
口口口③ |----|
口口④口 |----|
22
口口口口 |----|
口口口口 |----|
口口口口 |----|
口口口口 |----|
23
口口①口 |①-②-|
口②⑥口 |③④⑤-|
口③④⑤ |⑥-⑦-|
口口⑦口 |----|
24
口⑥口口 |①-②-|
①②③口 |③-④-|
口⑦④口 |⑤-⑥-|
口⑧⑤口 |⑦-⑧-|
25
口口①② |--①-|
口③④⑤ |②-③④|
口口口⑥ |⑤-⑥-|
口⑧⑦口 |⑦-⑧-|
26
①②③④ |----|
①②③④ |--①-|
口口口口 |②-③-|
口口口口 |④---|
27
口口口口 |--①-|
⑤⑥⑦口 |②-③-|
口④③口 |④-⑤-|
口①②口 |⑥-⑦-|
28
①②③④ |①-②-|
口口口口 |③-④-|
口口口口
口口口口

⑨⑩口口
口口口⑤
口口口口 |⑤⑥⑦⑧|
⑤⑥⑦⑧ |⑨-⑩-|
29
口口口口 |①---|
①②③口 |②-③-|
⑥⑤④口 |④---|
口口口口 |⑤-⑥-|
30
口口口① |--①-|
口口口② |②-③-|
⑥⑤④③ |--④⑤|
口口口口 |⑥---|
31
口口口口 |--①-|
⑤⑥⑦口 |②-③-|
口④③口 |④-⑤-|
口①②口 |⑥-⑦-|
32
①②③④ |①-②-|
口口口口 |③-④-|
口口口口
口口口口

⑨⑩口口
口口口⑤
口口口口 |⑤⑥⑦⑧|
⑤⑥⑦⑧ |⑨-⑩-|
33
口口口口 |①---|
①②③口 |②-③-|
⑥⑤④口 |④-⑤-|
⑦口口口 |⑥-⑦-|
34
③③②口 |--①-|
口①口口 |②---|
口口口口 |③---|
口口口口 |----|
35
口口口口 |①-②-|
①③③④ |③---|
⑤③③② |④-⑤-|
①口口④ |----|
36
口口口口 |①-②-|
口①②③ |③-④-|
口口口④ |--⑤-|
口⑤⑥⑦ |⑥-⑦-|
37
口口①口 |--①-|
③②口口 |②-③-|
口④口口 |--④-|
口⑤口口 |⑤---|
38
口口口① |①-②-|
口口口② |③-④-|
口口口③ |----|
口口④口 |----|
39
口口口口 |----|
口口口口 |----|
口口口口 |----|
口口口口 |----|
40
口①②③ |①②③-|
口口口④ |④-⑤-|
口⑥⑤口 |⑥-⑦-|
口口⑦口 |----|
41
口④口口 |①-②-|
①②③口 |③-④-|
⑦⑤⑧口 |⑤-⑥-|
口⑥口口 |⑦-⑧-|
42
口口①口 |--①-|
口②④⑤ |②-③-|
口③口⑥ |④-⑤-|
口口⑦口 |⑥-⑦-|
43
①②③④ |----|
口口口口 |--①-|
①②③④ |②-③-|
口口口口 |④---|
44
口口口口 |--①-|
口①②口 |②-③-|
口口③口 |--④-|
口④⑤⑥ |⑤-⑥-|
45
口口①口 |--①-|
口⑤②口 |②-③-|
口③⑥口 |④-⑤-|
④口口口 |--⑥-|
46
口口口① |①-②-|
口口口② |③-④-|
口口口③ |----|
口口④口 |----|
47
口口口口 |----|
口口口口 |----|
口口口口 |----|
口口口口 |----|
48
①口口口 |①-②-|
②口口口 |③-④-|
③⑤口口 |--⑤-|
④口口口 |----|
49
④口⑨⑩ |①②③-|
①②③口 |④-⑤-|
⑤口口口 |⑥⑦⑧-|
⑥⑦⑧口 |⑨-⑩-|
50
①②口口 |--①-|
③④⑤口 |②-③④|
口口⑥口 |⑤-⑥-|
⑧⑦口口 |⑦-⑧-|
51
③②②③ |----|
③①①③ |--①-|
③②②③ |②---|
口口口口 |③---|
52
口口口口 |--①-|
⑤⑥⑦口 |②-③-|
口④③口 |④-⑤-|
口①②口 |⑥-⑦-|
53
①②③④ |①-②-|
口口口⑤ |③-④-|
口口口口 |⑤---|
口口口口 |----|
54
口口口口 |①-②-|
③④⑧⑦ |③-④-|
②①⑤⑥ |⑤-⑥-|
口口口口 |⑦-⑧-|
55
②①口口 |--①-|
③④⑤⑥ |②-③-|
口口口⑦ |④-⑤-|
口口口口 |⑥-⑦-|
56
⑤口口⑤ |①-②-|
口③④口 |③-④-|
口②②口 |⑤---|
口①①口 |----|
57
口④⑤口 |①②③④|
③⑩⑪⑥ |⑤⑥⑦⑧|
②⑨⑫⑦ |⑨⑩⑪⑫|
口①⑧口 |----|
58
⑦⑥④⑤ |--①-|
③口口口 |②-③-|
②口口口 |④-⑤-|
①口口口 |⑥-⑦-|
59
口口口口 |①-②-|
口③⑤① |③-④-|
口②④口 |⑤---|
口口口口 |----|
60
①口口⑤ |①-②-|
口②⑥口 |③-④-|
口⑦③口 |⑤-⑥-|
⑧口口④ |⑦-⑧-|
61
①口口⑤ |①-②-|
口②⑥口 |③-④-|
口⑦③口 |⑤-⑥-|
⑧口口④ |⑦-⑧-|
62
①⑦③⑤ |①-②-|
⑧②⑥④ |③-④-|
①⑦③⑤ |⑤-⑥-|
⑧②⑥④ |⑦-⑧-|
63
①⑦③⑤ |①-②-|
⑧②⑥④ |③-④-|
①⑦③⑤ |⑤-⑥-|
⑧②⑥④ |⑦-⑧-|
64
①口口② |①---|
口⑤口口 |②---|
④口口口 |--③-|
③口口口 |④-⑤-|
65
口①②③ |①-②-|
口口口④ |③-④-|
口口⑤口 |⑤---|
口口⑥口 |⑥---|
66
①⑥口口 |①-②-|
②⑦口口 |③-④-|
③④⑤口 |⑤-⑥-|
口⑧口口 |⑦-⑧-|
67
口口①② |--①-|
口口④③ |②-③-|
口口口⑤ |④-⑤-|
口口⑦⑥ |⑥-⑦-|
68
①②口口 |--①-|
口③口口 |②-③-|
④口口口 |④-⑤-|
⑤⑥口口 |⑥---|
69
口口①口 |--①-|
口口②口 |②-③-|
口口③口 |④---|
口口④口 |----|
70
口①②口 |①---|
①口口② |②---|
口①②口 |----|
口口口口 |----|
71
口口口口 |--①-|
⑤⑥⑦口 |②-③-|
口④③口 |④-⑤-|
口①②口 |⑥-⑦-|
72
①②③口 |①-②-|
⑥口口口 |③-④-|
⑦⑤④口 |⑤---|
口口口口 |--⑥⑦|
73
口口口口 |①-②-|
口①②口 |③-④-|
口口③口
口④口口

口口口口
⑤⑥⑦口
口口口口 |--⑤-|
口口口口 |⑥-⑦-|
74
口③口口 |①-②-|
口口口口 |③-④-|
口④①口 |⑤---|
口⑤②口 |----|
75
①口口⑦ |①-②-|
②口口口 |③-④-|
③口⑥口 |⑤-⑥-|
④⑤口口 |--⑦-|
76
口口口口 |①-②-|
④⑤口① |③---|
口口口② |----|
口口③口 |④-⑤-|
77
口口口口 |①-②-|
口口①口 |③-④-|
口口②口 |⑤---|
③④⑤口 |----|
78
口口①口 |--①-|
口⑥②口 |②-③-|
口口③⑤ |④-⑤-|
口口④口 |--⑥-|
79
口口⑥⑦ |①-②-|
口口③口 |--③-|
口①④口 |④-⑤-|
②口口⑤ |⑥-⑦-|
80
口口口口 |----|
①②②① |①-②-|
①②②① |----|
口口口口 |----|


不确定度: 0

最終更新:2012年11月10日 15:17