Knell
Project B-

EXTREME

Level: 9
BPM: 205
Notes: 712

1
口口口口 |----|
口口口口 |----|
口口口口 |----|
口口口口
2
口口口口 |----|
口口口口 |----|
口口口口 |----|
口口口口
3
口口口口 |①---|
口口口口 |----|
口口口口 |----|
①口口口
4
口口口口 |①---|
口②口口 |--②-|
口①口口 |----|
口口口口
5
口口①① |①---|
口口口口 |--②-|
口口口口 |----|
口口②②
6
口④⑤口 |①-②-|
口⑥①口 |③-④-|
口②③口 |⑤-⑥-|
口口口口
7
口口口口 |①-②-|
口口口③ |----|
口口口口 |③---|
口②①口
8
口口口口 |----|
口口口口 |①---|
①口口口 |----|
口口口口
9
口口①① |①---|
口口口口 |--②-|
口口口口 |----|
口口②②
10
口口口口 |①---|
口口口口 |----|
口①口口 |----|
口口口口
11
口口口口 |①---|
口口口口 |----|
口口①口 |----|
口口口口
12
口口口口 |----|
口口口① |--①-|
口口口口 |----|
口口口口
13
口口①① |①---|
口口口口 |----|
口口口口 |----|
口口口口
14
口口口口 |①---|
口口①口 |----|
口口口口 |----|
口口口口
15
口口口口 |①---|
口口口口 |----|
口①口口 |----|
口口口口
16
口口口口 |①---|
口口口口 |----|
口口①口 |----|
口口口口
17
口口口① |①-②③|
⑥⑦⑧口 |④-⑤-|
②③④口 |⑥⑦⑧-|
⑤口口口
18
①②③口 |①②③-|
口口口⑧ |④⑤⑥-|
口口口⑦ |⑦-⑧-|
口④⑤⑥
19
口口口① |①-②③|
⑥⑦⑧口 |④-⑤-|
②③④口 |⑥⑦⑧-|
⑤口口口
20
①②③口 |①②③-|
口口口⑧ |④⑤⑥-|
口口口⑦ |⑦-⑧-|
口④⑤⑥
21
口口口① |①-②③|
⑥⑦⑧口 |④-⑤-|
②③④口 |⑥⑦⑧-|
⑤口口口
22
①②③口 |①②③-|
口口口⑧ |④⑤⑥-|
口口口⑦ |⑦-⑧-|
口④⑤⑥
23
口口口① |①-②③|
⑥⑦⑧口 |④-⑤-|
②③④口 |⑥⑦⑧-|
⑤口口口
24
口①口口 |①②③-|
口口口② |④-⑤-|
⑤口⑥④ |⑥---|
口③⑥口
25
口口口⑤ |①-②-|
①②③④ |③-④-|
口口口口 |--⑤-|
①口口④
26
③②①口 |①-②-|
口口⑤口 |③-④-|
④口口口 |⑤-⑥-|
口口⑥口
27
口口④⑤ |①-②-|
①③口④ |③-④-|
口①②口 |--⑤-|
口口口口
28
③②口口 |①---|
口口口口 |②---|
口口口① |③---|
口③②口
29
口口口口 |①-②-|
①口口④ |③-④-|
口③②⑤ |--⑤-|
①口口④
30
口⑤口口 |①-②-|
口口口口 |③-④-|
③口④口 |⑤---|
口②①口
31
①口口⑤ |①-②③|
口⑥②口 |④-⑤-|
口③⑦口 |⑥⑦⑧-|
口⑧④口
32
口①⑤口 |①-②③|
⑥口口② |④-⑤-|
③口口⑦ |⑥⑦⑧-|
⑧口口④
33
口口口① |①-②-|
口口①口 |③-④-|
口③⑤口 |⑤-⑥-|
口②④⑥
34
口①口口 |①-②-|
①口口口 |③-④-|
③⑤口② |⑤-⑥-|
④⑥口口
35
口口口① |①-②-|
口口①口 |③-④-|
口口③⑤ |⑤-⑥-|
⑥口②④
36
口①⑤口 |①-②-|
①③⑥② |③-④-|
口④⑦口 |⑤⑥⑦⑧|
口口⑧口
37
①口口④ |①-②-|
⑤口口④ |③-④-|
①口口口 |--⑤-|
口③口②
38
⑥口口口 |①-②-|
口③口口 |③-④-|
口①⑤口 |⑤-⑥-|
口口②④
39
口口①④ |①-②-|
⑤口④① |③-④-|
②口口口 |--⑤-|
口③口口
40
口②③口 |①---|
口口口口 |②---|
口口口口 |③---|
①口②③
41
④口口① |①-②-|
口②③⑤ |③-④-|
④口口① |--⑤-|
口口口口
42
口④⑤口 |①-②-|
⑧口口口 |③-④-|
⑦口①口 |⑤⑥⑦⑧|
⑥②口③
43
①口口⑤ |①-②③|
口⑥②口 |④-⑤-|
口③⑦口 |⑥⑦⑧-|
口⑧④口
44
口①⑤口 |①-②③|
⑥口口② |④-⑤-|
③口口⑦ |⑥⑦⑧-|
⑧口口④
45
口口⑥口 |①-②-|
口④②口 |③-④-|
口口⑤口 |⑤-⑥-|
口③①口
46
口①口口 |①---|
①口口口 |----|
口口口口
口口口口
47
①⑤口口 |①-②-|
口口口③ |③-④-|
②⑥口口 |⑤-⑥-|
口口口④
48
口口口口 |①---|
口口①口 |----|
口口口①
口口口口
49
口口①① |①-②-|
②⑥口口 |③-④-|
口⑤口口 |⑤-⑥-|
口③④④
50
②口口口 |①-②-|
⑥口①① |③-④-|
③口④④ |⑤-⑥-|
口⑤口口
51
口⑤①① |①-②-|
口口口口 |③-④-|
口③口⑥ |⑤-⑥-|
②口④④
52
③口口③ |①---|
②①①② |②---|
口口口口 |③---|
口口口口
53
口口口口 |①-②-|
口④⑥口 |③-④-|
④口①⑤ |⑤-⑥-|
口②③①
54
口①②口 |①-②-|
口口口③ |③-④-|
口口⑤口 |⑤-⑥-|
口④口⑥
55
口口⑥口 |①-②-|
口④③⑤ |③-④-|
④①口② |⑤-⑥-|
①口口口
56
口①口口 |①-②-|
①口⑥口 |③-④-|
口⑤口口 |⑤-⑥-|
口③④②
57
口⑥④口 |①-②-|
③①口④ |③-④-|
①口口② |⑤-⑥-|
口⑤口口
58
⑥口口⑤ |①-②-|
口③口口 |③-④-|
口②④口 |⑤-⑥-|
②口口①
59
口②①口 |①-②-|
③⑤④① |③-④-|
⑥口口④ |⑤-⑥-|
口口口口
60
④口⑦① |①-②-③-|
口口口⑤ |④-⑤-⑥-|
口⑧口口 |⑦-⑧-⑨-|
⑥②⑨③
61
⑥①口口 |①-②-|
①③②口 |③-④-|
⑤口④口 |⑤-⑥-|
口口口④
62
口口①⑥ |①-②-|
口口口① |③-④-|
口④口口 |⑤-⑥-|
②⑤③口
63
口①口口 |①-②-|
①④⑥口 |③-④-|
④口③⑤ |⑤-⑥-|
口口口②
64
④口③⑤ |①-②-|
口口口② |③-④-|
⑥①口口 |⑤-⑥-|
①口口口
65
口④口口 |①-②-|
④口⑤口 |③-④-|
口⑥①口 |⑤-⑥-|
口②③①
66
口口口② |①-②-|
口口口口 |③-④-|
③口⑥① |⑤-⑥-|
口⑤口④
67
②④④口 |①-②-|
口①①③ |③-④-|
口口口⑥ |⑤-⑥-|
⑤口口口
68
口口口⑤ |①-②-|
②口口口 |③-④-|
⑥④④口 |⑤-⑥-|
口①①③
69
②④④口 |①-②-|
口①①③ |③-④-|
口口口⑥ |⑤-⑥-|
⑤口口口
70
口口口口 |①-②-|
③口口⑤ |③-④-|
⑥①①口 |⑤-⑥-|
口④④②
71
①③②① |①--②|
口口口口 |--③-|
口⑤④口 |④-⑤-|
口口口口
72
口口口口 |①--②|
①②③① |--③-|
口口口口 |④-⑤-|
口④⑤口
73
口⑤④口 |①--②|
口口口口 |--③-|
①③②① |④-⑤-|
口口口口
74
口口口口 |①---|
口口口口 |----|
口口③口 |②-③-|
①②口①
75
口口口② |①---|
③①口口 |②-③-|
口口口④ |④-⑤-|
⑤口口口
76
口口②口 |①---|
口口①③ |②---|
④口口口 |③-④-|
口口口口
77
口口口口 |①---|
口②③口 |②-③-|
口④⑤口 |④-⑤-|
口口口①
78
②③口口 |①---|
①口④口 |②---|
口口口口 |③-④-|
口口口口
79
口口口口 |①---|
口口口口 |②-③-|
⑤①口④ |④-⑤-|
③口口②
80
口口③② |①---|
口④口① |②---|
口口口口 |③-④-|
口口口口
81
口口口④ |①---|
③口口口 |②-③-|
口口①⑤ |④-⑤-|
②口口口
82
口②口口 |①-②-|
口口③口 |③-④-|
口①⑥口 |⑤-⑥-|
⑤口④口
83
口口口② |①---|
①口口口 |②-③-|
③⑤口口 |④-⑤-|
口口口④
84
③口口口 |①-②-|
口②①口 |③---|
口口④口 |④-⑤-|
口⑤口口
85
口口口口 |①---|
②口口口 |②-③-|
口口口③ |④-⑤-|
④口①⑤
86
口口口③ |①-②-|
口①②口 |③---|
口口⑤口 |④-⑤-|
口④口口
87
口①②口 |①---|
口③口口 |②-③-|
口口口④ |④-⑤-|
⑤口口口
88
①口口口 |①---|
口口⑤口 |②-③-|
口④③口 |④-⑤-|
口②口口
89
口②⑥口 |①-②-|
①口口⑤ |③-④-|
口口口④ |⑤-⑥-|
口口③口
90
口口口口 |①---|
口②②口 |②---|
口①口口 |③-④-|
①④③口
91
②①②口 |①---|
①口口③ |②-③-|
④口④口 |④-⑤-|
口口口⑤
92
口②口① |①---|
口②①口 |②---|
口口口② |③-④-|
③口④口
93
口口①口 |①---|
②口④① |②-③-|
②口④口 |④-⑤-|
口③口⑤
94
②口④② |①---|
口③口② |②---|
口①口口 |③-④-|
①口口口
95
口①口口 |①---|
①口口口 |②-③-|
口⑤④④ |④-⑤-|
口③②②
96
①③②② |①---|
口①口② |②---|
口口口口 |③-④-|
口口④口
97
口口口口 |①-②-|
①③⑤口 |③-④-|
②④⑥口 |⑤-⑥-|
口口口口
98
口⑤③① |①-②-|
口口口口 |③-④-|
口口口口 |⑤-⑥-|
口⑥④②
99
②口口口 |①---|
口④口① |②-③-|
口②③① |④-⑤-|
④口口⑤
100
口口④③ |①-②-|
③口③④ |③---|
①⑤口口 |④-⑤-|
口口②口
101
①②口④ |①---|
⑤①口口 |②-③-|
②口④③ |④-⑤-|
口口口口
102
⑤口口口 |①-②-|
口④①口 |③---|
口③口口 |④-⑤-|
③口②③
103
口⑤①口 |①-②-|
口口⑥① |③-④-|
②口口④ |⑤-⑥-|
口③口口
104
③口口⑥ |①-②-|
口口口口 |③-④-|
④①口口 |⑤-⑥-|
①⑤口②
105
口口⑤口 |①-②-|
②①⑥④ |③-④-|
口口①口 |⑤-⑥-|
口口③口
106
①①口④ |①-②-|
口口口口 |③-④-|
③③口口 |⑤---|
⑤⑤口②
107
④口口口 |①-②-|
②口口③ |③-④-|
⑥口口① |⑤-⑥-|
口口口⑤
108
口口口口 |①---|
口②②口 |②---|
口①①口 |----|
口②②口
109
口口口① |①-②③|
⑥⑦⑧口 |④-⑤-|
②③④口 |⑥⑦⑧-|
⑤口口口
110
①②③口 |①②③-|
口口口⑧ |④⑤⑥-|
口口口⑦ |⑦-⑧-|
口④⑤⑥
111
口口口① |①-②③|
⑥⑦⑧口 |④-⑤-|
②③④口 |⑥⑦⑧-|
⑤口口口
112
①②③口 |①②③-|
口口口⑧ |④⑤⑥-|
口口口⑦ |⑦-⑧-|
口④⑤⑥
113
口口口① |①-②③|
⑥⑦⑧口 |④-⑤-|
②③④口 |⑥⑦⑧-|
⑤口口口
114
①②③口 |①②③-|
口口口⑧ |④⑤⑥-|
口口口⑦ |⑦-⑧-|
口④⑤⑥
115
口口口① |①-②③|
⑥⑦⑧口 |④-⑤-|
②③④口 |⑥⑦⑧-|
⑤口口口
116
口①口口 |①②③-|
口口口② |④-⑤-|
⑤口⑥④ |⑥---|
口③⑥口
117
①②①② |①---|
口口口口 |--②-|
口口口口 |----|
口口口口

不確定度: 0

最終更新:2016年12月20日 03:24