The Omen
RoughSketch

EXTREME

Level: 10
BPM: 185
Notes: 772

1
口口口口 |----|
口口口口 |----|
口口口口 |----|
口口口口 |----|
2
口口口口 |①---|
口口口口 |----|
口口口② |②---|
口口①口 |----|
3
口③口口 |①---|
③口①口 |②-③-|
口口口口 |----|
口②口口 |----|
4
口口口口 |①---|
口口口口 |----|
口口口② |②---|
口口①口 |----|
5
口③⑤⑤ |①---|
③口①口 |②-③-|
口口④口 |④---|
口②口口 |⑤---|
6
口口口口 |①---|
口口口口 |----|
口口口② |②---|
口口①口 |----|
7
口③口口 |①---|
③口①口 |②-③-|
口口口口 |----|
口②口口 |----|
8
口口口口 |①---|
口口口口 |----|
口口口② |②---|
口口①口 |----|
9
口③口口 |①---|
③口①口 |②-③-|
口口口口
口②口口

口口⑧④
口口⑨⑤
口口⑩⑥ |④⑤⑥⑦|
口口⑪⑦ |⑧⑨⑩⑪|
10
口口口口 |①---|
口口 |----|
口口 |----|
口口口② |②---|
11
口口口① |①---|
口口口口 |----|
口口口口 |----|
口口口口 |----|
12
口口口口 |①---|
口口 |----|
①口 |----|
口口口口 |----|
13
④⑧⑧口 |①-②-|
③⑦⑦口 |③-④-|
②⑥⑥口 |⑤-⑥-|
①⑤⑤口 |⑦-⑧-|
14
口口口口 |①---|
|----|
|----|
口口口口 |----|
15
①②口口 |----|
口口口口 |----|
口口口口 |----|
口口口口 |--①②|
16
口口①口 |①---|
口口口 |----|
口口口 |----|
口口口口 |----|
17
口 |①---|
口 |----|
口 |----|
口 |----|
18
口口口口 |----|
口口口口 |----|
口口口口 |----|
口口口口 |----|
19
口口口口 |----|
口口口口 |----|
口口口口 |①---|
口 |----|
20
⑥口口⑤ |①-②-|
②口口① |③④⑤⑥|
口④③口
②口口①

口口口口
口⑫⑨口
⑩口口⑪ |⑦⑧⑨⑩|
⑭⑧⑦⑬ |⑪⑫⑬⑭|
21
口②①口 |①-②-|
②口口① |③④⑤⑥|
口④③口
口⑥⑤口

⑧口⑩⑦
口⑧⑦⑩
口口口口 |⑦-⑧-|
⑨口口口 |⑨-⑩-|
22
⑦③口口 |①-②-|
③口⑤⑦ |③--④|
⑥②口① |-⑤⑥-|
⑧⑧④④ |⑦--⑧|
23
口口⑥③ |-①②-|
③①④口 |③--④|
口⑤口② |⑤-⑥-|
口⑨⑧⑦ |⑦⑧⑨-|
24
②口口口 |①-②-|
口④口③ |③④⑤⑥|
①⑥口⑤
口口口口

口口⑦⑦
⑨口⑧口
⑪口⑩口 |⑦-⑧⑨|
⑬口⑫口 |⑩⑪⑫⑬|
25
①①口口 |①-②-|
口②口③ |③-④-|
口④口口
口口口③

口⑧⑦⑤
⑥口⑤口
⑧口口⑦ |⑤-⑥-|
口⑥口口 |⑦-⑧-|
26
③口口⑦ |①-②-|
⑦口⑤③ |③--④|
口⑥②口 |-⑤⑥-|
①口④④ |⑦---|
27
④④①口 |①-②-|
口②口③ |③-④-|
口口口①
②口③口

口口口口
口口
口 |⑤---|
口口

口口口口
口口⑥口
口口口
口口 |⑥---|
28
③口①⑦ |①-②-|
⑧③⑦④ |③--④|
口②口口 |-⑤⑥-|
口⑥口⑤ |⑦--⑧|
29
③⑧⑨⑩ |-①②-|
口③口④ |③--④|
口⑦⑥⑤ |⑤⑥⑦-|
①口②口 |⑧⑨⑩-|
30
③口口⑦ |①-②-|
⑧口⑦④ |③--④|
②口口口 |-⑤⑥-|
口⑥①⑤ |⑦--⑧|
31
③⑤④口 |-①②-|
口③⑦口 |③--④|
⑧口⑥口 |⑤--⑥|
①口②⑥ |-⑦⑧-|
32
③口口⑦ |①-②-|
⑧口⑦④ |③--④|
口口口① |-⑤⑥-|
②⑥口⑤ |⑦--⑧|
33
③⑫④⑪ |-①②-|
⑩③⑨口 |③--④|
口⑧口⑦ |⑤⑥⑦⑧|
①⑥②⑤ |⑨⑩⑪⑫|
34
⑦口⑥口 |①-②-|
口②⑩③ |③-④⑤|
口⑨口⑧ |-⑥⑦-|
①⑤口④ |⑧⑨⑩-|
35
⑧口⑦⑨ |①②③④|
口⑥口⑤ |⑤⑥⑦⑧|
④口③口 |⑨---|
②口①口 |----|
36
口④口④ |①-②-|
口⑥②⑥ |③-④-|
口①⑤① |⑤-⑥-|
口⑦③⑦ |--⑦-|
37
⑧⑩①⑤ |①②③④|
④口⑪⑨ |⑤⑥⑦⑧|
⑫②⑦口 |⑨⑩⑪⑫|
⑥口③⑬ |⑬---|
38
口⑦③⑦ |①-②-|
口④⑤④ |③-④-|
口①口① |⑤-⑥-|
口⑥②⑥ |--⑦-|
39
⑥口③口 |①②③④|
⑨⑨⑨⑨ |⑤⑥⑦⑧|
②④⑦① |⑨---|
⑩⑧⑤⑩ |⑩---|
40
口④②④ |①-②-|
口⑥口⑥ |③-④-|
口①⑤① |⑤-⑥-|
口⑦③⑦ |--⑦-|
41
⑧口①⑤ |①②③④|
④⑩口⑪ |⑤⑥⑦⑧|
⑫②⑨⑦ |⑨⑩⑪⑫|
⑥口③⑬ |⑬---|
42
⑦③⑦口 |①-②-|
①⑤①口 |③-④-|
⑥口⑥口 |⑤-⑥-|
④②④口 |--⑦-|
43
口⑥⑦① |--①-|
⑥⑤①⑦ |②③--|
口③口④ |④-⑤⑥|
③口④② |--⑦-|
44
口④口口 |----|
口口③口 |----|
口②口口 |----|
口口①口 |①②③④|
45
口口口口 |①---|
口口口口 |----|
口口口口


口口口口
口口口③
口口口② |----|
口口 |②-③-|
46
①①口① |①---|
口口④口 |②---|
②②口口 |③---|
口口③② |④---|
47
口口①口 |①---|
①①口① |②-③-|
口口口②
口口③口

口口口⑤
口口口
④④口 |④-⑤-|
口口口 |--⑥-|
48
③③口口 |①---|
②口口口 |②-③-|
口口口口 |----|
①①口 |④---|
49
口口口口 |①---|
口口 |----|
口口
口口

口口口口
口②口④
口口口③ |②---|
口口 |③-④-|
50
①①③① |①---|
口口口口 |②---|
②②口④ |③---|
口口②口 |④---|
51
口口④口 |①-②-|
①①口③ |③-④-|
⑤⑤②⑦ |⑤---|
口口⑥① |⑥-⑦-|
52
③口⑦② |①-②-|
口口①⑥ |--③-|
口口⑤口 |④-⑤-|
①①口④ |⑥-⑦-|
53
口①口① |①---|
③口口口 |②--③|
口口口口
②口②口

口口口⑥
口口⑤口
口④口⑥ |-④-⑤|
口口口口 |--⑥-|
54
口⑥①口 |①---|
⑤口⑥口 |②③④-|
口⑤①口 |-⑤--|
②③④口 |⑥---|
55
①口①口 |①---|
口口口③ |②--③|
口口口口
口②口②

⑥口口口
口⑤口口
⑥口④口 |-④-⑤|
口口口口 |--⑥-|
56
口①口口 |①---|
口口口口 |②③④⑤|
口①口口
⑤④③②

口口口⑧
口⑦口口
口⑩⑨⑥ |⑥-⑦-|
口口口口 |⑧-⑨⑩|
57
口 |①---|
口口口 |----|
口口口 |----|
口口口 |----|
58
口口口口 |----|
口口口口 |----|
口口口口 |----|
口口口口 |----|
59
⑦①④ |①②③④|
口⑤口 |⑤⑥⑦⑧|
③口⑥口
口口⑧②

口口⑭口
⑮口⑫⑯
口⑪口⑩ |⑨⑩⑪⑫|
⑨⑬口口 |⑬⑭⑮⑯|
60
口口口口 |①---|
口口口口 |----|

口口口口

口口口口
⑥⑦⑧⑨
口口口 |②③④⑤|
⑤④③② |⑥⑦⑧⑨|
61
⑤①⑨③ |①-②-|
⑥口口⑨ |③--④|
⑦口②口 |---⑤⑥⑦|
⑧④口④ |⑧-⑨-|
62
⑦①⑪⑥ |①-②-|
⑧⑤②⑪ |③④⑤⑥|
⑨口①④ |---⑦⑧⑨|
⑩③口口 |⑩-⑪-|
63
口①口④ |①-②③|
口口口口 |④-⑤-|
口③①口
口⑤⑤②

⑫⑪口口
⑥⑦⑧口
口口⑩⑨ |⑥⑦⑧-|
口口口口 |⑨⑩⑪⑫|
64
口⑦⑥⑤ |①-②③|
④口⑧① |-④-⑤|
⑨②口⑩ |-⑥-⑦|
⑤⑥⑦③ |-⑧⑨⑩|
65
⑤口⑨③ |①-②-|
⑥①口⑨ |③--④|
⑦口②口 |---⑤⑥⑦|
⑧④口④ |⑧-⑨-|
66
⑦①⑪⑥ |①-②-|
⑧⑤②⑪ |③④⑤⑥|
⑨口①④ |---⑦⑧⑨|
⑩③口口 |⑩-⑪-|
67
口①口④ |①-②③|
口口口口 |④-⑤-|
口③①口
口⑤⑤②

⑫⑪口口
⑥⑦⑧口
口口⑩⑨ |⑥⑦⑧-|
口口口口 |⑨⑩⑪⑫|
68
口⑦⑥⑤ |①-②③|
④⑨⑩① |-④-⑤|
口②口⑧ |-⑥-⑦|
⑤⑥⑦③ |-⑧⑨⑩|
69
①口口口 |①-②-|
④口口③ |③④⑤⑥|
口⑥⑤口
口口口②

⑭⑩⑦⑬
口口口口
⑫口口⑨ |⑦⑧⑨⑩|
口⑧⑪口 |⑪⑫⑬⑭|
70
⑪⑧⑦⑪ |①-②-|
⑧⑥⑤⑦ |③④⑤⑥|
口④③⑨ |⑦-⑧-|
②⑩口① |⑨⑩⑪-|
71
口⑦口口 |①-②-|
⑦⑤③口 |③--④|
②口⑥口 |-⑤⑥-|
④⑧⑧① |⑦--⑧|
72
口口③口 |-①②-|
口口①③ |③-④⑤|
口②口口 |----|
⑤口口④ |----|
73
②口口口 |①-②-|
口口口口 |③④⑤⑥|
①④③口
口⑥⑤口

口⑦⑦口
⑨口口⑧
⑪口口⑩ |⑦-⑧⑨|
⑬口口⑫ |⑩⑪⑫⑬|
74
①⑦⑤③ |①-②-|
⑥①③⑤ |③-④-|
⑧④②⑦ |⑤-⑥-|
口⑧⑥口 |⑦-⑧-|
75
②口⑦口 |①②③④|
口⑥③口 |⑤⑥⑦⑧|
口④⑤口
⑧口口①

⑯⑩口⑨
⑫口口⑬
⑭口口⑪ |⑨⑩⑪⑫|
口口口⑮ |⑬⑭⑮⑯|
76
口④口口 |①-②-|
口③口口 |③-④-|
口②口口
口①①口

口口⑤口
口口⑥口
口口⑦口 |⑤-⑥-|
口口⑧口 |⑦-⑧-|
77
口口口口 |①---|
②口口② |②---|
口口口口
①口口①

⑥⑥口口
口口④口
口⑤口③ |③④⑤⑥|
⑦⑦口口 |--⑦-|
78
⑧⑧④口 |--①②|
口口⑥③ |③④--|
口⑦②⑤ |⑤⑥⑦⑧|
⑨⑨口① |--⑨-|
79
⑧⑧④口 |--①②|
口口⑥③ |③④--|
口⑦②⑤ |⑤⑥⑦⑧|
⑨⑨口① |--⑨-|
80
口口④⑨ |①②③④|
⑤⑤⑧③ |⑤---|
⑩⑩②⑦ |⑥⑦⑧⑨|
口口⑥① |⑩---|
81
⑦⑦①口 |①-②-|
③③⑤口 |③---|
口⑥口④ |④⑤⑥⑦|
⑧⑧口② |--⑧-|
82
⑧⑧④口 |--①②|
口口⑥③ |③④--|
口⑦②⑤ |⑤⑥⑦⑧|
⑨⑨口① |--⑨-|
83
⑧⑥口口 |①-②-|
口口④② |③-④-|
⑦⑤口口 |⑤-⑥-|
口口③① |⑦-⑧-|
84
口口口① |①②③④|
⑥口⑤口 |⑤⑥⑦⑧|
口⑧口⑦
②④口③

⑭⑩⑨⑮
口⑯口⑪
⑫口⑬口 |⑨⑩⑪⑫|
口口口口 |⑬⑭⑮⑯|
85
口口口口 |①---|
口口口口 |----|
口口口口 |----|
①①①① |----|

不確定度: 0

最終更新:2017年05月12日 00:07