Bleep Beep Bop
kors k

BASIC

Level: 4
BPM: 175
Notes: 409

1
口口口口 |----|
口口口口 |----|
口口口口 |----|
口口口口 |----|
2
口口口口 |----|
口口口口 |----|
口口口口 |----|
口口口口 |----|
3
口③③口 |①---|
口①①口 |②---|
口②②口 |③---|
口④④口 |④---|
4
④口口④ |①---|
②口口② |②---|
①口口① |③---|
③口口③ |④---|
5
口③③口 |①---|
口①①口 |②---|
口②②口 |③---|
口④④口 |④---|
6
④口口④ |①---|
②口口② |②---|
①口口① |③---|
③口口③ |④---|
7
口③③口 |①---|
口①①口 |②---|
口②②口 |③---|
口④④口 |④---|
8
④口口④ |①---|
②口口② |②---|
①口口① |③---|
③口口③ |④---|
9
口③③口 |①---|
口①①口 |②---|
口②②口 |③---|
口④④口 |④---|
10
口口口口 |①---|
①口口① |----|
②口口② |②---|
口③③口 |③---|
11
①①①① |①---|
口口③口 |②---|
口②④口 |③---|
口口口口 |④---|
12
口口口④ |①---|
口口口③ |②---|
口口口② |③---|
口口口① |④---|
13
口口①口 |①---|
口③②口 |②---|
口④口口 |③---|
口口口口 |④---|
14
④口口口 |①---|
③口口口 |②---|
②口口口 |③---|
①口口口 |④---|
15
口①口口 |①---|
口②③口 |②---|
口口④口 |③---|
口口口口 |④---|
16
口口口④ |①---|
口口口③ |②---|
口口口② |③---|
口口口① |④---|
17
口①①口 |①---|
口②②口 |②---|
口③③口 |③---|
口④④口 |④---|
18
④口口④ |①---|
③口口③ |②---|
②口口② |③---|
①口口① |④---|
19
口①口口 |①---|
口口②口 |----|
口口口口 |②---|
口口口口 |----|
20
口④口口 |①---|
③口口口 |②---|
口②口口 |③---|
①口口口 |④---|
21
口口①口 |①---|
口②口口 |----|
口口口口 |②---|
口口口口 |----|
22
口口④口 |①---|
口口口③ |②---|
口口②口 |③---|
口口口① |④---|
23
口①口口 |①---|
口口②口 |----|
口口口口 |②---|
口口口口 |----|
24
口④口口 |①---|
③口口口 |②---|
口②口口 |③---|
①口口口 |④---|
25
口口①口 |①---|
口②口口 |----|
口口口口 |②---|
口口口口 |----|
26
口口④口 |①---|
口口口③ |②---|
口口②口 |③---|
口口口① |④---|
27
口口口口 |①---|
口①①口 |----|
口口口口 |②---|
口②②口 |----|
28
口口口口 |①---|
口口口口 |②---|
④③②① |③---|
口口口口 |④---|
29
口口口口 |①---|
口①①口 |----|
口口口口 |②---|
口②②口 |----|
30
口口口口 |①---|
口口口口 |②---|
①②③④ |③---|
口口口口 |④---|
31
口口口口 |①---|
口①①口 |----|
口口口口 |②---|
口②②口 |----|
32
口口口口 |①---|
口口口口 |②---|
④③②① |③---|
口口口口 |④---|
33
口口口口 |①---|
口①①口 |----|
口口口口 |②---|
口②②口 |----|
34
口口口口 |①---|
口口口口 |②---|
①②③④ |③---|
口口口口 |④---|
35
①①口口 |①---|
口口②② |----|
口口口口 |②---|
口口口口 |----|
36
口口口口 |①---|
口口口口 |----|
①①口口 |②---|
口口②② |----|
37
口口口口 |①---|
口口口口 |----|
口口②② |②---|
①①口口 |----|
38
口口②② |①---|
①①口口 |----|
口口口口 |②---|
口口口口 |----|
39
口口口口 |----|
口口口口 |----|
口口口口 |----|
口口①口 |①---|
40
①①①① |①---|
③③④④ |②---|
口口②② |③---|
口口口口 |④---|
41
口口口口 |①---|
口口口口 |----|
口口口口 |②---|
①口口② |----|
42
口口口口 |①---|
口①①口 |----|
口①①口 |----|
口口口口 |----|
43
口口口① |①---|
口口②口 |②---|
口口口口 |----|
口口口口 |----|
44
口口口口 |①---|
口口口口 |②---|
①口口口 |----|
口②口口 |----|
45
④③②① |①---|
口口口口 |②---|
口口口口 |③---|
口口口口 |④---|
46
口口口口 |①---|
口①④③ |②---|
口口②口 |③---|
口口口口 |④---|
47
①口口口 |①---|
口②口口 |②---|
口口口口 |----|
口口口口 |----|
48
口口口口 |①---|
口口口口 |②---|
口口口① |----|
口口②口 |----|
49
①②③④ |①---|
口口口口 |②---|
口口口口 |③---|
口口口口 |④---|
50
口口口口 |①---|
③口①口 |②---|
口②口口 |③---|
口口口口 |----|
51
口口①① |①---|
口口口② |②---|
口口口③ |③---|
口口口④ |④---|
52
①①口口 |①---|
②口口口 |②---|
③口口口 |③---|
④口口口 |④---|
53
口口①① |①---|
口口②口 |②---|
口口③口 |③---|
口口④口 |④---|
54
①①口口 |①---|
口②口口 |②---|
口③口口 |③---|
口④口口 |④---|
55
②②①① |①---|
④④③③ |②---|
口口口口 |③---|
口口口口 |④---|
56
口口口口 |①---|
口口口口 |②---|
②②①① |③---|
④④③③ |④---|
57
①①①① |①---|
②②②② |②---|
③③③③ |③---|
④④④④ |④---|
58
①①①① |①---|
口③③口 |----|
口②②口 |②---|
口口口口 |③---|
59
①口口① |①---|
③口口口 |②---|
口④口口 |③---|
②口口② |④---|
60
口③④口 |①---|
口③④② |②---|
口口①口 |③---|
口口口口 |④---|
61
①口口① |①---|
口口口③ |②---|
口口④口 |③---|
②口口② |④---|
62
口口口口 |①---|
②④③口 |②---|
口①口口 |③---|
口口口口 |④---|
63
②口口② |①---|
口口口口 |②---|
③口口口 |③---|
①④口① |④---|
64
口③③口 |①---|
口口口口 |②---|
口④④② |③---|
口口①口 |④---|
65
②口口② |①---|
口④③口 |②---|
口口口口 |③---|
①口口① |④---|
66
口口口口 |①---|
口口口口 |②---|
口②①口 |③---|
口④③口 |④---|
67
①口口① |①---|
③口口口 |②---|
口④口口 |③---|
②口口② |④---|
68
口③④口 |①---|
口③④② |②---|
口口①口 |③---|
口口口口 |④---|
69
①口口① |①---|
口口口③ |②---|
口口④口 |③---|
②口口② |④---|
70
口口口口 |①---|
②④③口 |②---|
口①口口 |③---|
口口口口 |④---|
71
②口口② |①---|
口口口口 |②---|
③口口口 |③---|
①④口① |④---|
72
口③③口 |①---|
口口口口 |②---|
口④④② |③---|
口口①口 |④---|
73
②口口② |①---|
口④③口 |②---|
口口口口 |③---|
①口口① |④---|
74
口口口口 |①---|
口口口口 |②---|
口②①口 |③---|
口④③口 |④---|
75
口口②① |①---|
③④口口 |②---|
口口口口 |③---|
口口口口 |④---|
76
口口口口 |①---|
口口口口 |②---|
口口②① |③---|
③④口口 |④---|
77
③口口① |①---|
口④②口 |②---|
口口口口 |③---|
口口口口 |④---|
78
口口口口 |①---|
③口口① |②---|
口④②口 |③---|
口口口口 |④---|
79
口口口口 |①---|
口口口口 |②---|
④口口② |③---|
③口口① |④---|
80
口口口口 |①---|
口④②口 |②---|
口③①口 |③---|
口口口口 |④---|
81
①口口① |①---|
②口口② |②---|
③口口③ |③---|
④口口④ |④---|
82
口④④口 |①---|
口③③口 |②---|
口②②口 |③---|
口①①口 |④---|
83
口口口口 |①---|
①口口① |----|
①口口① |----|
口口口口 |----|

不確定度: 0

最終更新:2016年10月19日 14:28