世界五分前仮説
有形ランペイジ
EXTREME
Level: 9
BPM: 140-195
Notes: 736
BPM: 140
1
口口口口 |----|
口口口口 |----|
口口口口 |----|
口口口口 |----|
2
⑥口④口 |①②-③|
口口②口 |-④⑤-|
口③⑤口 |⑥-|
①口口①
3
口④口口 |①②-③|
口②口口 |-④|
口口口③
①口口①
4
⑥口④口 |①②-③|
口口②口 |-④⑤-|
口③⑤口 |⑥-|
口①①口
5
口⑤⑥④ |①②③④|
⑤②③⑥ |-⑤-⑥|
①口口口
口口口口
6
②④④③ |①--②|
④②③④ |--③-|
③③①① |--④-|
①①②② |----|
7
②口口③ |①--②|
③①②口 |--③-|
①②③①
③口①②
口口④口
口口口④
④口口口 |--④-|
口④口口 |----|
8
⑥口④口 |①②-③|
口口②口 |-④⑤-|
口③⑤口 |⑥-|
①口口①
9
口④口口 |①②-③|
口②口口 |-④|
口口口③
①口口①
10
⑥口④口 |①②-③|
口口②口 |-④⑤-|
口③⑤口 |⑥-|
口①①口
11
口⑤⑥④ |①②③④|
⑤②③⑥ |-⑤-⑥|
①口口口
口口口口
12
②④④③ |①--②|
④②③④ |--③-|
③③①① |--④-|
①①②② |----|
13
②口口③ |①--②|
③①②口 |--③-|
①②③①
③口①②
口口④口
口口口④
④口口口 |--④-|
口④口口 |----|
14
口⑤口① |①-②-|
②口口口 |-③--|
口④①口 |④--⑤|
③口口口
口口口口 |--⑥-|
⑥口口口 |--⑦-|
口口口口
口⑦口口
15
口口口① |--①-|
口口③④ |-②--|
口口口口 |③--④|
口口口②
口口口口 |--⑤-|
口口口口 |--⑥-|
口口⑥口
口口⑤口
16
口口口口 |--①-|
口②口口 |-②--|
④口口口 |③--④|
①③口口
⑤口⑥口 |--⑤-|
口口口口 |--⑥-|
口口口口
口口口口
17
③①口① |①--②|
②②③口 |--③-|
口③②②
①口①③
口⑤④⑤
口口口④
④口口口 |-④--|
⑥④⑥口 |⑤-⑥-|
18
①口③口 |①-②-|
口口口④ |-③--|
口①口口 |④--⑤|
口口⑤②
口口口口 |--⑥-|
口口⑥口 |--⑦-|
口口口⑦
口口口口
19
②口口口 |--①-|
口③口口 |-②--|
口口口口 |③--④|
①④口口
口⑥口口 |--⑤-|
⑤口口口 |--⑥-|
口口口口
口口口口
20
口口口① |--①-|
口口口口 |-②--|
口口④口 |③--④|
口口②③
口⑥口口 |--⑤-|
口口口⑤ |--⑥-|
口口口口
口口口口
21
①口①③ |①--②|
②③②口 |--③-|
口②③②
③①口①
⑤④⑤口
口口口④
④口口口 |-④--|
口⑥④⑥ |⑤-⑥-|
22
⑧⑧口① |①-②-|
②②口⑤ |③④⑤-|
④⑥①口 |⑥⑦-⑧|
④⑥③⑦
口口口⑪ |⑨-⑩-|
⑩⑩⑨口 |⑪-⑫-|
⑫口口口
口⑫口口
23
口⑤口口 |①-②-|
口口②口 |③④⑤-|
口口④①
③口②④
口口⑥⑧
口口口⑥
口⑦口⑧ |⑥⑦-⑧|
口口口口
口口口口 |⑨-⑩-|
⑨口⑩⑫ |⑪-⑫-|
口口⑫口
⑪口⑩口
24
②④口⑤ |①-②-|
④⑥⑦口 |③④⑤-|
⑧②口③ |⑥⑦-⑧|
⑥⑧口①
⑩口⑫口 |⑨-⑩-|
口口口⑪ |⑪-⑫-|
口⑩口口
口口口⑨
25
③①口① |①--②|
②②③口 |--③-|
口③②②
①口①③
口⑤④⑤
口口口④
④口口口 |-④--|
⑥④⑥口 |⑤-⑥-|
26
①口⑥⑥ |①-②-|
口③②⑧ |③④⑤-|
⑦①④② |⑥⑦-⑧|
口⑤⑧④
口口⑫⑫ |⑨-⑩-|
口⑪⑩口 |⑪-⑫-|
口⑨口⑩
口口口口
27
④⑥口口 |①-②-|
②⑥口⑤ |③④⑤-|
⑧④③⑦ |⑥⑦-⑧|
②⑧口①
⑫⑫⑪口 |⑨-⑩-|
⑩口⑨口 |⑪-⑫-|
口口口口
⑩口口口
28
口口口② |①-②-|
口口口② |③④⑤-|
③口口①
口⑤④④
口口⑥口
口⑦⑥口
口口⑧⑧ |⑥⑦-⑧|
口口口口
口⑫口⑩ |⑨-⑩-|
⑨口口⑩ |⑪-⑫-|
口口口口
⑪口口口
29
①口①③ |①--②|
②③②口 |--③-|
口②③②
③①口①
⑤④⑤口
口口口④
④口口口 |-④--|
口⑥④⑥ |⑤--⑥|
30
口口口口 |----|
口口口口 |----|
②口口口 |①---|
①口口口 |②---|
31
①――< |①---|
口口口口 |----|
口口口口
口口口口
②口口口
口口口③
口口口口 |----|
口口口口 |②-③-|
BPM在140附近飄忽不定
32
⑥口口⑤ |①--②|
口②口口 |--③-|
④口口口 |④--⑤|
口①口③ |--⑥-|
33
口口∨口 |①---|
口口|口 |----|
口口|口
口口①口
③③口口
③口口口
口③口口 |----|
③③②口 |②-③-|
34
口口口② |①--②|
口口③口 |--③-|
口口口①
口口口口
口④④口
④口口④
⑥⑤⑥⑤ |④--⑤|
⑤⑥⑤⑥ |-⑥--|
35
①――< |①---|
口口口口 |----|
口口口口
口口口口
②口口口
口口口③
口口口口 |----|
口口口口 |②-③-|
36
口口口口 |①---|
口口口口 |----|
口口口口
①――<
口口口口
口口口口
>――② |②---|
②口口口 |----|
37
口∨②② |①---|
口|口口 |-②-③|
①|③①
口①口③
口口口口
口口⑤⑤
口口口④ |---④|
口口④口 |--⑤-|
38
③口①① |①---|
口③口口 |②---|
口②口口 |③---|
②①口口
39
口①口① |①---|
口口口| |-②-③|
③②口|
②③口∧
④④口口
⑤⑤口口
口口口口 |---④|
口口口口 |--⑤-|
40
口口①① |①---|
口口③③ |②---|
口口口② |③---|
口口②口
41
∨口③⑤ |①②③④|
|②口口 |-⑤-⑥|
|④①口
①口口⑥
口口⑩口
口口口⑦
口口⑧口 |-⑦⑧⑨|
口⑨口口 |--⑩-|
42
口⑥⑥口 |①②③④|
口④①口 |⑤---|
⑤②口⑤ |⑥---|
①口③口
43
⑤口口∨ |①②③④|
口③②| |-⑤-⑥|
口①④|
⑥口口①
口⑩口口
⑦口口口
口⑧口口 |-⑦⑧⑨|
口口⑨口 |--⑩-|
44
口口①口 |①-②-③-|
口②口④ |④-⑤-⑥-|
③口⑤口
口⑥口①
口口⑩⑦
口⑪⑧口
⑫⑨口口 |⑦-⑧-⑨-|
口口口口 |⑩-⑪-⑫-|
45
口口口口 |①-②-③-|
口口④① |④-⑤-⑥-|
口⑤②口
⑥③口口
口口⑦口
口⑧⑫口
⑨口口⑪ |⑦-⑧-⑨-|
口口⑩口 |⑩-⑪-⑫-|
46
口口口口 |----|
口口口口 |----|
口口口口 |----|
口口口口 |----|
BPM在125附近飄忽不定
47
口口口口 |①---|
口口口口 |----|
口口口口
①――<
口口口口
口口口口
②―<口 |②---|
②口口口
口口④③
口口口口
③口口口
口口口口 |--③-④-|
48
口口口口 |①--|
①<口口
口口口口
口口口口
口口口口 |-②-|
②口口② |--③---|
口③口口
口口口口
口口口口
口口⑤口
口⑥口口 |④---|
口口口④ |--⑤-⑥-|
49
口②口口 |①---②-|
口⑤口口 |--③---|
口口口③ |④---|
①④口口 |⑤---|
50
口口①① |①---|
口口③③ |②---|
②②口口 |③---|
④④口口 |④---|
BPM在195附近飄忽不定
51
口口口口 |①---|
口③口口 |②---|
口口②口 |③---|
口口①①
52
口口①① |①---|
口口②口 |②---|
口③口口 |③---|
口口口口
53
口口口口 |①---|
口②口口 |②---|
口口③口 |③---|
①①口口
54
口口口口 |①---|
口口②口 |----|
口③口口 |②-③-|
口口①①
55
②口口① |①---|
口口口口 |②---|
口口口口 |③---|
③口口口
BPM在140附近飄忽不定
56
口口口口 |①---|
口②口口 |②---|
口口口口
口口口①
57
④口④口 |①---|
③④③口 |②---|
口③②④ |③---|
②①口口 |④---|
58
口①口① |①-②③|
口口口④ |④-⑤⑥|
②⑥口口
⑤③口口
⑧口⑦口
⑫⑨口口
口口口⑦ |⑦-⑧⑨|
口⑪口⑩ |⑩-⑪⑫|
59
口③⑤① |①-②③|
口④②① |-④⑤-|
③口口⑤
口口口口
⑥口口口
口口口⑨
口⑥⑩口 |⑥-⑦-|
⑦口口⑧ |⑧-⑨⑩|
60
③口②⑤ |①-②③|
口③口口 |-④⑤-|
口④口⑤
口①口口
口⑧⑧口
⑥口口口
口口⑦口 |⑥-⑦-|
⑥口⑩⑨ |⑧-⑨⑩|
61
④口口④ |①-②③|
口①①口 |④-⑤⑥|
口口⑥⑤
②③口口
口口口口
⑦⑩⑩⑦
⑧⑨口口 |⑦-⑧⑨|
口口⑫⑪ |⑩-⑪⑫|
62
口①①④ |①-②③|
②⑥口口 |④-⑤⑥|
口口口口
⑤③口口
口⑨口口
口口口⑦
⑧口⑫⑦ |⑦-⑧⑨|
口⑪⑩口 |⑩-⑪⑫|
63
③口②① |①-②③|
口③⑤口 |-④⑤-|
口④口⑤
口口口口
口⑧⑩口
⑦⑪口口
口口口口 |⑥-⑦⑧|
⑥口口⑨ |⑨-⑩⑪|
64
②口口口 |①-②③|
⑥⑦④⑥ |-④⑤-|
①⑤口③ |⑥---|
⑥口③⑥ |⑦---|
65
口口∨口 |①-②③|
③口|口 |----|
口②|口
口口①口
口口口口
口口口⑦
口⑥口⑤ |----|
口④口口 |④⑤⑥⑦|
66
④③口口 |①-②③|
②①⑤口 |-④-⑤|
⑥⑦口口 |--⑥-|
⑧口口口 |⑦-⑧-|
67
口口②③ |①--②|
口①④④ |-③-④|
口口③②
口口①口
口口口口
⑤⑥口口
口口口口 |----|
⑥⑤口口 |⑤-⑥-|
68
②④④② |①--②|
口口口口 |-③-④|
③①①③
口口口口
⑩口口⑩
⑤⑥⑤⑥
口⑨⑨口 |⑤-⑥-⑦-|
⑦⑧⑦⑧ |⑧-⑨-⑩-|
69
口②口口 |①--②|
⑦口③③ |----|
①⑥口① |--③④|
④④⑤口 |-⑤⑥⑦|
70
口①②口 |①②③④|
口③⑦口 |⑤⑥⑦⑧|
口口④⑥
口⑧口⑤
口⑫⑭⑬
⑪⑮口口
⑨⑩⑯口 |⑨⑩⑪⑫|
口口口口 |⑬⑭⑮⑯|
71
口口口口 |①②③④|
⑦口③口 |⑤⑥⑦-|
⑥④口②
⑤口口①
口⑭⑨⑧
口⑩⑬口
口口口⑫ |-⑧⑨⑩|
口口⑪口 |⑪⑫⑬⑭|
72
口口⑧口 |①②③④|
②⑦口⑥ |⑤⑥⑦⑧|
口③④口
①口口⑤
⑩⑪口⑨
口口⑪口
⑩口口⑨ |⑨-⑩-|
⑫口口⑬ |⑪-⑫⑬|
73
口口口口 |①---|
①口口① |----|
口①①口 |----|
口口口口 |----|
不確定度: 0