New York EVOLVED
NC underground

ADVANCED

Level: 9
BPM: 190
Notes: 760

1
口口口口 |----|
口口口口 |----|
口口口口 |----|
口口口口 |----|
2
⑤②口⑥ |①-②-|
口①口口 |③-④-|
口口③口 |--⑤-|
⑥口④⑤ |--⑥-|
3
④口③⑤ |--①-|
口口②口 |②-③-|
口口①口 |④---|
⑤口口④ |⑤---|
4
⑤②口⑥ |①-②-|
口①口口 |③-④-|
口口③口 |--⑤-|
⑥口④⑤ |--⑥-|
5
口口④口 |--①-|
⑤③口口 |②-③-|
口口②⑥ |④-⑤-|
⑦①口口 |⑥-⑦-|
6
④①口⑤ |--①-|
口口口口 |②-③-|
口口②口 |--④-|
⑤口③④ |--⑤-|
7
④口③⑤ |--①-|
口口②口 |②-③-|
口口①口 |④---|
⑤口口④ |⑤---|
8
⑤②口⑥ |①-②-|
口①口口 |③-④-|
口口③口 |--⑤-|
⑥口④⑤ |--⑥-|
9
口④③口 |--①-|
口⑥⑤口 |②---|
口②①口 |③-④-|
口口口口 |⑤-⑥-|
10
④口口④ |①-②-|
口口⑤口 |③---|
口②②口 |④---|
③口口① |⑤---|
11
④口口④ |①-②-|
口⑤口口 |③---|
口②②口 |④---|
③口口① |⑤---|
12
口口⑥口 |①-②-|
④⑤⑤口 |--③-|
③口②③ |④---|
口①①口 |⑤-⑥-|
13
①④④① |--①-|
口口口② |②---|
口口口口 |③---|
口③③口 |④---|
14
①⑥⑥口 |①-②-|
口口②口 |③-④-|
口③口口 |⑤---|
口⑤⑤④ |⑥---|
15
口口口① |①-②-|
④⑤口② |③---|
口口口③ |④-⑤-|
口口⑥⑦ |⑥-⑦-|
16
口口口① |①-②-|
④⑤口② |③---|
口口口③ |④-⑤-|
口口⑥⑦ |⑥-⑦-|
17
口口口① |①-②-|
④⑤口② |③---|
口口口③ |④-⑤-|
口口⑥⑦ |⑥-⑦-|
18
口口口口 |--①-|
口口⑥③ |②-③-|
口⑤②⑦ |④-⑤-|
④①口口 |⑥-⑦-|
19
⑤②口⑥ |①-②-|
口①口口 |③-④-|
口口③口 |--⑤-|
⑥口④⑤ |--⑥-|
20
④口③⑤ |--①-|
口口②口 |②-③-|
口口①口 |④---|
⑤口口④ |⑤---|
21
⑤②口⑥ |①-②-|
口①口口 |③-④-|
口口③口 |--⑤-|
⑥口④⑤ |--⑥-|
22
③口口口 |--①-|
口口口④ |②---|
③①②口 |③---|
口口口④ |④---|
23
⑤④口口 |①-②-|
⑦⑥③⑧ |③-④⑤|
口⑨②口 |-⑥⑦-|
口口①⑩ |⑧⑨⑩-|
24
⑥口⑩⑤ |①-②-|
⑧口口⑦ |③-④-|
②口③⑨ |⑤⑥⑦⑧|
④口①口 |⑨-⑩-|
25
⑤④口口 |①-②-|
⑦⑥③⑧ |③-④⑤|
口⑨②口 |-⑥⑦-|
口口①⑩ |⑧⑨⑩-|
26
口口⑥⑩ |①-②-|
口口口⑧ |③-④-|
②⑨③⑤ |⑤-⑥-|
④⑦①口 |⑦⑧⑨⑩|
27
⑤④口口 |①-②-|
⑦⑥③⑧ |③-④⑤|
口⑨②口 |-⑥⑦-|
口口①⑩ |⑧⑨⑩-|
28
⑥口⑩⑤ |①-②-|
⑧口口⑦ |③-④-|
②口③⑨ |⑤⑥⑦⑧|
④口①口 |⑨-⑩-|
29
⑤④口口 |①-②-|
⑦⑥③⑧ |③-④⑤|
口⑨②口 |-⑥⑦-|
口口①⑩ |⑧⑨⑩-|
30
④⑫⑪② |①-②-|
口⑩⑨口 |③-④-|
①⑧⑦③ |⑤⑥⑦⑧|
口⑥⑤口 |⑨⑩⑪⑫|
31
口口口① |①---|
口口口口 |----|
口口口口 |----|
口口口口 |----|
32
①口口口 |①---|
口口口口 |----|
口口口口 |----|
口口口口 |----|
33
口口口口 |①---|
口口口口 |----|
口口口口 |----|
口口口① |----|
34
口口口口 |①---|
口口口口 |----|
口口口口 |----|
①口口口 |----|
35
①口口口 |①-②-|
②③④口 |③-④-|
①⑦⑥⑤ |--⑤-|
口口口口 |⑥-⑦-|
36
①口口口 |①-②-|
②③④口 |③-④-|
①⑦⑥⑤ |--⑤-|
口口口口 |⑥-⑦-|
37
②⑤④① |①---|
口口口口 |②-③-|
③⑥口④ |④---|
口口口口 |⑤-⑥-|
38
③口口① |①---|
口口口口 |②---|
口口①口 |③---|
口口口② |----|
39
⑦口③口 |①-②-|
③④口② |③-④-|
⑤⑥口⑧ |⑤-⑥-|
①口⑦口 |⑦-⑧-|
40
口口③② |①-②-|
口口④③ |③-④-|
口口口口
①口口口

口口口口
口⑤口口
⑦⑥⑤口 |⑤-⑥-|
⑧⑦口口 |⑦-⑧-|
41
口③口⑦ |①-②-|
②口④③ |③-④-|
⑧口⑥⑤ |⑤-⑥-|
口⑦口① |⑦-⑧-|
42
⑦④口⑥ |①-②-|
口③⑥③ |③-④-|
口②⑦⑤ |⑤---|
口⑥⑤① |⑥-⑦-|
43
⑦口③口 |①-②-|
③④口② |③-④-|
⑤⑥口⑧ |⑤-⑥-|
①口⑦口 |⑦-⑧-|
44
口口③② |①-②-|
口口④③ |③-④-|
口口口口
①口口口

口口口口
口⑤口口
⑦⑥⑤口 |⑤-⑥-|
⑧⑦口口 |⑦-⑧-|
45
口③口⑦ |①-②-|
②口④③ |③-④-|
⑧口⑥⑤ |⑤-⑥-|
口⑦口① |⑦-⑧-|
46
④③口⑥ |①-②-|
口②⑤③ |③---|
口⑥口④ |④-⑤-|
口口⑦① |⑥-⑦-|
47
⑦口③口 |①-②-|
③④口② |③-④-|
⑤⑥口⑧ |⑤-⑥-|
①口⑦口 |⑦-⑧-|
48
口口③② |①-②-|
口口④③ |③-④-|
口口口口
①口口口

口口口口
口⑤口口
⑦⑥⑤口 |⑤-⑥-|
⑧⑦口口 |⑦-⑧-|
49
口③口⑦ |①-②-|
②口④③ |③-④-|
⑧口⑥⑤ |⑤-⑥-|
口⑦口① |⑦-⑧-|
50
⑦④口⑥ |①-②-|
口③⑥③ |③-④-|
口②⑦⑤ |⑤---|
口⑥⑤① |⑥-⑦-|
51
⑦口③口 |①-②-|
③④口② |③-④-|
⑤⑥口⑧ |⑤-⑥-|
①口⑦口 |⑦-⑧-|
52
口口③② |①-②-|
口口④③ |③-④-|
口口口口
①口口口

口口口口
口⑤口口
⑦⑥⑤口 |⑤-⑥-|
⑧⑦口口 |⑦-⑧-|
53
口③口⑦ |①-②-|
②口④③ |③-④-|
⑧口⑥⑤ |⑤-⑥-|
口⑦口① |⑦-⑧-|
54
④③口⑥ |①-②-|
口②⑤③ |③---|
口⑥口④ |④-⑤-|
口口⑦① |⑥-⑦-|
55
口口口口 |①---|
①口口口 |----|
①口口口 |----|
①口口口 |----|
56
口口口口 |----|
口口口口 |----|
口口口口 |----|
口口口口 |----|
57
口⑥⑥② |①--②|
③口口口 |--③-|
口口口④ |-④--|
①⑤⑤口 |⑤-⑥-|
58
口⑥⑥口 |①--②|
口④口① |--③-|
②口③口 |-④--|
口⑤⑤口 |⑤-⑥-|
59
口⑥⑥② |①--②|
③口口口 |--③-|
口口口④ |-④--|
①⑤⑤口 |⑤-⑥-|
60
口⑥⑥口 |①--②|
口④口① |--③-|
②口③口 |-④--|
口⑤⑤口 |⑤-⑥-|
61
口⑥⑥② |①--②|
③口口口 |--③-|
口口口④ |-④--|
①⑤⑤口 |⑤-⑥-|
62
口⑥⑥口 |①--②|
口④口① |--③-|
②口③口 |-④--|
口⑤⑤口 |⑤-⑥-|
63
口⑥⑥② |①--②|
③口口口 |--③-|
口口口④ |-④--|
①⑤⑤口 |⑤-⑥-|
64
①⑦⑦④ |①--②|
口⑤口① |--③-|
②口③口 |④⑤--|
口⑥⑥口 |⑥-⑦-|
65
⑤⑧⑧口 |①--②|
①口⑥① |③-④-|
⑦②口口 |⑤⑥--|
③⑦⑦④ |⑦-⑧-|
66
口⑧⑧⑤ |①--②|
①⑥口① |③-④-|
口口②⑦ |⑤⑥--|
④⑦⑦③ |⑦-⑧-|
67
⑤⑧⑧口 |①--②|
①口⑥① |③-④-|
⑦②口口 |⑤⑥--|
③⑦⑦④ |⑦-⑧-|
68
④口口① |①-②-|
口⑤⑤口 |③-④-|
口口口口 |⑤---|
②口口③ |----|
69
⑤⑧⑧口 |①--②|
①口⑥① |③-④-|
⑦②口口 |⑤⑥--|
③⑦⑦④ |⑦-⑧-|
70
口⑧⑧⑤ |①--②|
①⑥口① |③-④-|
口口②⑦ |⑤⑥--|
④⑦⑦③ |⑦-⑧-|
71
⑤⑧⑧口 |①--②|
①口⑥① |③-④-|
⑦②口口 |⑤⑥--|
③⑦⑦④ |⑦-⑧-|
72
口口口① |①-②-|
②⑦⑦口 |③④⑤⑥|
口③④口 |⑦--⑧|
⑤⑧⑧⑥ |----|
73
⑤⑧⑧口 |①--②|
①口⑥① |③-④-|
⑦②口口 |⑤⑥--|
③⑦⑦④ |⑦-⑧-|
74
口⑧⑧⑤ |①--②|
①⑥口① |③-④-|
口口②⑦ |⑤⑥--|
④⑦⑦③ |⑦-⑧-|
75
⑤⑧⑧口 |①--②|
①口⑥① |③-④-|
⑦②口口 |⑤⑥--|
③⑦⑦④ |⑦-⑧-|
76
④口口① |①-②-|
口⑤⑤口 |③-④-|
⑦口口⑥ |⑤-⑥-|
②⑦⑥③ |⑦---|
77
⑤⑧⑧口 |①--②|
①口⑥① |③-④-|
⑦②口口 |⑤⑥--|
③⑦⑦④ |⑦-⑧-|
78
口⑧⑧⑤ |①--②|
①⑥口① |③-④-|
口口②⑦ |⑤⑥--|
④⑦⑦③ |⑦-⑧-|
79
⑤⑧⑧口 |①--②|
①口⑥① |③-④-|
⑦②口口 |⑤⑥--|
③⑦⑦④ |⑦-⑧-|
80
⑦口口④ |①-②-|
⑥⑤⑤③ |③④-⑤|
口②①口 |-⑥⑦-|
⑩⑧⑧⑨ |⑧-⑨⑩|
81
口①①口 |①---|
口口②③ |----|
口口③② |②-③-|
口口口口 |----|
82
口口口口 |①-②-|
②①③④ |----|
①②④③ |③-④-|
口口口口 |----|
83
口口口口 |①-②-|
②①③④ |----|
①②④③ |③-④-|
口口口口 |----|
84
①①口口 |①---|
口口口口 |②---|
口口口口
口口②②

⑧口⑦⑧
口⑥⑤口
口④③口 |③④⑤⑥|
口口口口 |⑦-⑧-|
85
口口口口 |----|
口口①② |----|
口口口口 |①-②-|
口口②① |----|
86
口口口口 |①-②-|
②①③④ |----|
口口口口 |③-④-|
①②④③ |----|
87
①④④① |①---|
口口口口 |②---|
②口口② |③---|
口③③口 |④---|
88
②⑧⑧① |①-②-|
②⑥⑤① |③④⑤⑥|
⑦④③⑦ |⑦--⑧|
口口口口 |----|
89
口口口口 |①---|
口口口口 |----|
口口口口 |----|
①①①① |----|
90
口口口口 |----|
口口口口 |----|
口口口口 |----|
口口口口 |----|
91
①口口① |①---|
①口口① |----|
①口口① |----|
口口口口 |----|

不確定度: 0

最終更新:2016年09月08日 11:48