New York EVOLVED
NC underground

EXTREME

Level: 10
BPM: 190
Notes: 848

1
口口口口 |----|
口口口口 |----|
口口口口 |----|
口口口口 |----|
2
⑤⑥口口 |①-②-|
⑥⑤口口 |③-④-|
口③②口 |--⑤-|
口①④口 |--⑥-|
3
口口⑤④ |--①-|
口口④⑤ |②-③-|
口口口口 |④---|
口①②③ |⑤---|
4
⑤⑥口口 |①-②-|
⑥⑤口口 |③-④-|
口③②口 |--⑤-|
口①④口 |--⑥-|
5
口口⑥④ |--①-|
口口口③ |②-③-|
口口口② |④-⑤-|
⑤⑦口① |⑥-⑦-|
6
④⑤口口 |--①-|
⑤④口口 |②-③-|
口②①口 |--④-|
口口③口 |--⑤-|
7
口口⑤④ |--①-|
口口④⑤ |②-③-|
口口口口 |④---|
口①②③ |⑤---|
8
⑤⑥口口 |①-②-|
⑥⑤口口 |③-④-|
口③②口 |--⑤-|
口①④口 |--⑥-|
9
口口⑤② |①-②-|
口口④① |③-④-|
⑧口口⑦ |⑤-⑥-|
⑥③⑥③ |⑦-⑧-|
10
口口口⑥ |①-②-|
④③⑤② |③---|
口①①口 |④-⑤-|
④②④② |⑥---|
11
口口口⑥ |①-②-|
④③⑤② |③---|
口①①口 |④-⑤-|
④②④② |⑥---|
12
口⑤①⑥ |①-②-|
口③口口 |--③-|
口①⑤② |④---|
④口③口 |⑤-⑥-|
13
口口口口 |--①-|
③⑤①口 |②---|
③⑤④⑥ |③-④-|
口①口② |⑤-⑥-|
14
⑤①⑨② |①-②-|
⑥⑬⑩⑬ |③--④--⑤-⑥-⑦-|
⑦口⑪口 |⑧⑨⑩⑪⑫-|
⑧④⑫③ |⑬---|
15
口口④① |①-②-|
③口⑥口 |③---|
口⑤口② |④-⑤-|
口⑦口口 |⑥-⑦-|
16
①④口口 |①-②-|
口⑥口③ |③---|
②口⑤口 |④-⑤-|
口口⑦口 |⑥-⑦-|
17
口口④① |①-②-|
③口⑥口 |③---|
口⑤口② |④-⑤-|
口⑦口口 |⑥-⑦-|
18
①②③口 |--①-|
⑦口口⑤ |②-③-|
口口口口 |④-⑤-|
⑥口口④ |⑥-⑦-|
19
⑤⑥口口 |①-②-|
⑥⑤口口 |③-④-|
口③②口 |--⑤-|
口①④口 |--⑥-|
20
口口⑤④ |--①-|
口口④⑤ |②-③-|
口口口口 |④---|
口①②③ |⑤---|
21
⑤⑥口口 |①-②-|
⑥⑤口口 |③-④-|
口③②口 |--⑤-|
口①④口 |--⑥-|
22
③口③口 |--①-|
口口口口 |②---|
口①②口 |③---|
口④口④ |④---|
23
⑥口⑦⑤ |①②③④|
口口口口 |⑤-⑥⑦|
口②口④
①口③口

口口口口
⑩⑨口⑧
⑪口口口 |-⑧⑨-|
⑫口口口 |⑩⑪⑫-|
24
口口口⑤ |①②③④|
口口口口 |⑤-⑥-|
口②①口
口④③⑥

口口口口
⑩⑨⑧⑦
⑪口⑫口 |⑦⑧⑨⑩|
口口口口 |⑪-⑫-|
25
⑥口⑦⑤ |①②③④|
口口口口 |⑤-⑥⑦|
口②口④
①口③口

口口口口
⑩⑨口⑧
⑪口口口 |-⑧⑨-|
⑫口口口 |⑩⑪⑫-|
26
口口口⑤ |①②③④|
口口口口 |⑤-⑥-|
口②①口
口④③⑥

口⑦⑧口
⑪口⑬⑨
⑩口⑫口 |⑦⑧⑨-|
口口口口 |⑩⑪⑫⑬|
27
⑥口⑦⑤ |①②③④|
口口口口 |⑤-⑥⑦|
口②口④
①口③口

口口口口
⑩⑨口⑧
⑪口口口 |-⑧⑨-|
⑫口口口 |⑩⑪⑫-|
28
口口口⑤ |①②③④|
口口口口 |⑤-⑥-|
口②①口
口④③⑥

口口口口
⑩⑨⑧⑦
⑪口⑫口 |⑦⑧⑨⑩|
口口口口 |⑪-⑫-|
29
⑥口⑦⑤ |①②③④|
口口口口 |⑤-⑥⑦|
口②口④
①口③口

口口口口
⑩⑨口⑧
⑪口口口 |-⑧⑨-|
⑫口口口 |⑩⑪⑫-|
30
⑧⑥⑨③ |①②③-|
⑫口⑬口 |④⑤⑥-|
⑩⑤⑪② |⑦⑧⑨⑩|
⑭④⑦① |⑪⑫⑬⑭|
31
口口口① |①---|
口口口口 |----|
口口口口 |----|
口口口口 |----|
32
①口口口 |①---|
口口口口 |----|
口口口口 |----|
口口口口 |----|
33
口口口口 |①---|
口口口口 |----|
口口口口 |----|
口口口① |----|
34
口口口口 |①---|
口口口口 |----|
口口口口 |----|
①口口口 |----|
35
①口口口 |①-②-|
②③④口 |③-④-|
①⑦⑥⑤ |--⑤-|
口口口口 |⑥-⑦-|
36
①口口口 |①-②-|
②③④口 |③-④-|
①⑦⑥⑤ |--⑤-|
口口口口 |⑥-⑦-|
37
⑥⑬⑧① |①---②③④⑤|
⑨⑩⑪⑫ |⑥-⑦-|
⑦⑭口⑧ |⑧---⑨⑩⑪⑫|
②③④⑤ |⑬-⑭-|
38
③口口① |①---|
口口口口 |②---|
口口①口 |③---|
口口口② |----|
39
④②⑥⑥ |①-②-|
②口⑧口 |③-④-|
口⑦口口 |⑤-⑥-|
③①①⑤ |⑦-⑧-|
40
口③⑤⑦ |①-②-|
①④口⑧ |③-④-|
②口⑥口 |⑤-⑥-|
③⑤⑦口 |⑦-⑧-|
41
④②⑥⑥ |①-②-|
②口⑧口 |③-④-|
①⑦口口 |⑤-⑥-|
③口口⑤ |⑦-⑧-|
42
口口口⑧ |①-②-|
①口口⑦ |③-④-|
口⑨⑩⑥ |⑤⑥⑦⑧|
④②③⑤ |⑨-⑩-|
43
④②⑥⑥ |①-②-|
②口⑧口 |③-④-|
①⑦口口 |⑤-⑥-|
③口口⑤ |⑦-⑧-|
44
口③⑤⑦ |①-②-|
①④口⑧ |③-④-|
②口⑥口 |⑤-⑥-|
③⑤⑦口 |⑦-⑧-|
45
④②⑥⑥ |①-②-|
②口⑧口 |③-④-|
①⑦口口 |⑤-⑥-|
③口口⑤ |⑦-⑧-|
46
口口⑦口 |①-②-|
①②口⑤ |③-④-|
口⑥③④ |⑤-⑥-|
口②⑧⑤ |⑦-⑧-|
47
④②⑥⑥ |①-②-|
②口⑧口 |③-④-|
①⑦口口 |⑤-⑥-|
③口口⑤ |⑦-⑧-|
48
口③⑤⑦ |①-②-|
①④口⑧ |③-④-|
②口⑥口 |⑤-⑥-|
③⑤⑦口 |⑦-⑧-|
49
④②⑥⑥ |①-②-|
②口⑧口 |③-④-|
①⑦口口 |⑤-⑥-|
③口口⑤ |⑦-⑧-|
50
口口口⑧ |①-②-|
①口口⑦ |③-④-|
口⑨⑩⑥ |⑤⑥⑦⑧|
④②③⑤ |⑨-⑩-|
51
④②⑥⑥ |①-②-|
②口⑧口 |③-④-|
①⑦口口 |⑤-⑥-|
③口口⑤ |⑦-⑧-|
52
口③⑤⑦ |①-②-|
①④口⑧ |③-④-|
②口⑥口 |⑤-⑥-|
③⑤⑦口 |⑦-⑧-|
53
④②⑥⑥ |①-②-|
②口⑧口 |③-④-|
①⑦口口 |⑤-⑥-|
③口口⑤ |⑦-⑧-|
54
口口⑦口 |①-②-|
①②口⑤ |③-④-|
口⑥③④ |⑤-⑥-|
口②⑧⑤ |⑦-⑧-|
55
①①口口 |①---|
①口口口 |----|
口口口口 |----|
口口口口 |----|
56
口口口口 |----|
口口口口 |----|
口口口口 |----|
口口口口 |----|
57
⑥口②⑤ |①--②|
口③口口 |--③-|
口口④口 |-④--|
⑤①口⑥ |⑤-⑥-|
58
⑥口口⑤ |①--②|
口口③① |--③-|
②④口口 |-④--|
⑤口口⑥ |⑤-⑥-|
59
⑥口②⑤ |①--②|
口③口口 |--③-|
口口④口 |-④--|
⑤①口⑥ |⑤-⑥-|
60
⑥口口⑤ |①--②|
口口③① |--③-|
②④口口 |-④--|
⑤口口⑥ |⑤-⑥-|
61
⑥口②⑤ |①--②|
口③口口 |--③-|
口口④口 |-④--|
⑤①口⑥ |⑤-⑥-|
62
⑥口口⑤ |①--②|
口口③① |--③-|
②④口口 |-④--|
⑤口口⑥ |⑤-⑥-|
63
⑥口②⑤ |①--②|
口③口口 |--③-|
口口④口 |-④--|
⑤①口⑥ |⑤-⑥-|
64
⑦⑤口⑥ |①--②|
①口③① |--③-|
②④④口 |④⑤--|
⑥口口⑦ |⑥-⑦-|
65
⑧口②⑦ |①--②|
⑤④④① |③-④-|
口口⑥口 |⑤⑥--|
⑦①③⑧ |⑦-⑧-|
66
⑧⑤口⑦ |①--②|
口④④① |③-④-|
②⑥口③ |⑤⑥--|
⑦①口⑧ |⑦-⑧-|
67
⑧口②⑦ |①--②|
⑤④④① |③-④-|
口口⑥口 |⑤⑥--|
⑦①③⑧ |⑦-⑧-|
68
口②③口 |①-②-|
口口口口 |③-④-|
⑧⑦⑥⑤ |⑤⑥⑦⑧|
口①④口 |----|
69
⑧口②⑦ |①--②|
⑤④④① |③-④-|
口口⑥口 |⑤⑥--|
⑦①③⑧ |⑦-⑧-|
70
⑧⑤口⑦ |①--②|
口④④① |③-④-|
②⑥口③ |⑤⑥--|
⑦①口⑧ |⑦-⑧-|
71
⑧口②⑦ |①--②|
⑤④④① |③-④-|
口口⑥口 |⑤⑥--|
⑦①③⑧ |⑦-⑧-|
72
口④③⑧ |①-②-|
⑦⑥⑤① |③④⑤⑥|
⑨⑩口⑦ |⑦--⑧|
⑧①②口 |--⑨⑩|
73
⑨⑦②⑧ |①--②|
⑤④④① |③-④-|
口口⑥口 |⑤⑥⑦-|
⑧①③⑨ |⑧-⑨-|
74
⑩⑥口⑨ |①-②③|
口⑤⑤① |④-⑤-|
③⑦⑧④ |⑥⑦⑧-|
⑨①②⑩ |⑨-⑩-|
75
⑩⑧③⑨ |①-②③|
⑥⑤⑤① |④-⑤-|
②口⑦口 |⑥⑦⑧-|
⑨①④⑩ |⑨-⑩-|
76
⑧口口⑦ |①-②③|
口⑤⑤① |④-⑤-|
③⑥⑥④ |⑥-⑦-|
⑦①②⑧ |⑧---|
77
⑨⑦②⑧ |①--②|
⑤④④① |③-④-|
口口⑥口 |⑤⑥⑦-|
⑧①③⑨ |⑧-⑨-|
78
⑩⑥口⑨ |①-②③|
口⑤⑤① |④-⑤-|
③⑦⑧④ |⑥⑦⑧-|
⑨①②⑩ |⑨-⑩-|
79
⑩⑧③⑨ |①-②③|
⑥⑤⑤① |④-⑤-|
②口⑦口 |⑥⑦⑧-|
⑨①④⑩ |⑨-⑩-|
80
口口⑤口 |①-②-|
⑦口⑧④ |③④-⑤|
⑥口口③ |-⑥⑦-|
⑨①②⑩ |⑧-⑨⑩|
81
口口④⑤ |①---|
口口⑤④ |②-③-|
口②③口 |④-⑤-|
⑥①①⑦ |⑥-⑦-|
82
②①⑤⑥ |①-②-|
①②⑥⑤ |③-④-|
口③口⑦ |⑤-⑥-|
⑧④口口 |⑦-⑧-|
83
②①⑤⑥ |①-②-|
①②⑥⑤ |③-④-|
口口③口 |⑤-⑥-|
⑧④口⑦ |⑦-⑧-|
84
口①口口 |①-②-|
①④口口 |③-④-|
口口②③
口口③口

口⑩⑦⑨
⑩口口⑤
⑥口口口 |⑤⑥⑦⑧|
口⑧口⑩ |⑨-⑩-|
85
口口③④ |----|
口口②口 |①-②-|
口口④③ |③-④-|
①⑥⑤口 |⑤-⑥-|
86
②①④口 |①-②-|
③口⑤⑥ |③-④-|
①②⑧⑦ |⑤-⑥-|
口口⑥⑤ |⑦-⑧-|
87
④③④③ |①-②-|
②①口口 |③---|
口⑤口⑤ |④---|
①②口口 |⑤---|
88
口⑥⑤口 |①-②-|
口④③口 |③④⑤⑥|
①口①口
②口②口

⑦口口⑦
⑧口口⑧
⑫⑩⑪⑨ |⑦--⑧|
口口口口 |⑨⑩⑪⑫|
89
口口口口 |①---|
口口口口 |----|
口口口口 |----|
①①①① |----|
90
口口口口 |----|
口口口口 |----|
口口口口 |----|
口口口口 |----|
91
口口①口 |①---|
①口口① |----|
①口口① |----|
口①口口 |----|

不確定度: 0

最終更新:2016年09月08日 11:48