Now Loading!!!!
fourfolium

EXTREME

Level: 8
BPM: 193
Notes: 471

1
口口口口 |----|
口口口口 |----|
口口口口 |----|
口口口口 |----|
2
口口口口 |①-②-|
①②⑦⑥ |③-④-|
③④口口 |⑤---|
⑤口口口 |⑥-⑦-|
3
④④口口 |①-②-|
⑤⑤口口 |③---|
口口②① |④-⑤-|
口口口③ |----|
4
口口口① |①---|
口口①① |②-③-|
口口口口
②③口口

口口口⑥
口口⑥口
口口口口 |④-⑤-|
口口④⑤ |--⑥-|
5
口口③④ |--①-|
①口口口 |--②-|
口①口② |--③-|
口口②口 |④---|
6
①口口口 |①---|
①①口口 |②-③-|
口口口口
口口③②

⑥口口口
口⑥口口
口口口口 |④-⑤-|
⑤④口口 |--⑥-|
7
④③口口 |--①-|
口口口① |--②-|
②口①口 |--③-|
口②口口 |④---|
8
口口口口 |①---|
口口④口 |--②-|
③②口① |③---|
口口口口 |--④-|
9
口口④口 |①---|
③②口① |--②-|
口口口口 |③---|
口口口口 |--④-|
10
①③③② |①---|
口③③口 |--②-|
口①②口 |----|
口口口口 |③---|
11
口口④③ |--①-|
口口口口 |--②-|
②②②② |--③-|
①①①① |④---|
12
口口口口 |----|
①口口③ |①---|
口②口④ |②---|
口口口口 |③-④-|
13
④口口口 |--①-|
③口口口 |--②-|
①口②口 |----|
①口②口 |③-④-|
14
口口口② |----|
③④口① |①-②-|
口口口口 |----|
口口口口 |③-④-|
15
口③口口 |--①-|
口④口口 |--②-|
口⑤①口 |--③-|
口口口② |④-⑤-|
16
口口口口 |----|
③口口① |①---|
④口②口 |②---|
口口口口 |③-④-|
17
口口口④ |--①-|
口口口③ |--②-|
口②口① |----|
口②口① |③-④-|
18
②口口口 |----|
①口④③ |①-②-|
口口口口 |----|
口口口口 |③-④-|
19
口口③口 |--①-|
口口④口 |--②-|
口①⑤口 |--③-|
②口口口 |④-⑤-|
20
口口口口 |----|
①①口口 |①---|
②②口口 |②---|
口口④③ |③-④-|
21
口口①① |--①-|
口口②② |--②-|
口④口口 |----|
口③口口 |③-④-|
22
④口口④ |----|
口③③口 |①-②-|
口口②口 |----|
口口①口 |③-④-|
23
口口③口 |--①-|
①④口① |--②-|
②口⑤② |--③-|
口口口口 |④-⑤-|
24
①①口口 |①---|
①口口口 |②---|
口③口② |----|
口口②口 |③---|
25
口口①① |①---|
口口口① |②---|
②口④③ |----|
口②口口 |③-④-|
26
口口口④ |①---|
②③口⑤ |②-③-|
口①口口 |----|
口口口口 |④-⑤-|
27
口口口口 |--①-|
①⑤⑤口 |②-③-|
②④④口 |④---|
③口口口 |⑤---|
28
口①①口 |①---|
②口口口 |----|
口口口口 |②---|
口口口口 |----|
29
口口口① |①---|
口口②口 |②---|
口③口口 |③---|
④口口口 |④---|
30
④口③② |①---|
⑤口口口 |②-③-|
口口口① |--④-|
口口口① |--⑤-|
31
口口口口 |----|
口口口① |----|
口口口① |①---|
②③口口 |②-③-|
32
口口口口 |①---|
口②③口 |②---|
②口口③ |----|
口口①口 |③---|
33
口口口口 |----|
口口口口 |----|
口口口口 |①-②-|
①②③④ |③-④-|
34
口口口口 |①---|
③口口② |②---|
①③②口 |----|
口口口口 |③---|
35
口②①口 |----|
口口口口 |①---|
口口口口 |②---|
口口口口 |----|
36
口口口口 |①---|
口口口② |----|
口口口口 |②---|
口①①口 |----|
37
①口口口 |①---|
口②口口 |②---|
口口③口 |③---|
口口口④ |④---|
38
②③口④ |①---|
口口口⑤ |②-③-|
①口口口 |--④-|
①口口口 |--⑤-|
39
口口口口 |----|
口口口口 |----|
口口口口 |----|
口①①口 |①---|
40
②口口① |①---|
口④口③ |②---|
口口口口 |③---|
口口口口 |④---|
41
口口口口 |①---|
口口口口 |②---|
②口口① |③---|
口④口③ |④---|
42
口②①口 |①-②-|
口④③口 |③-④-|
口⑥⑤口 |⑤-⑥-|
口⑧⑦口 |⑦-⑧-|
43
⑧口口⑦ |①-②-|
⑥口口⑤ |③-④-|
④口口③ |⑤-⑥-|
②口口① |⑦-⑧-|
44
⑤②②⑤ |--①-|
⑤④③⑤ |②---|
④①①③ |③-④-|
口口口口 |--⑤-|
45
⑤口口⑤ |--①-|
⑥口口⑥ |②-③-|
口口口口 |④---|
①②③④ |⑤-⑥-|
46
口②③口 |①---|
⑥口口⑦ |②-③-|
①口口① |④-⑤-|
④口口⑤ |⑥-⑦-|
47
⑤③④⑤ |①-②-|
⑥口口⑥ |③-④-|
口③④口 |----|
口①②口 |⑤-⑥-|
48
口③②口 |①---|
⑦口口⑥ |②-③-|
①口口① |④-⑤-|
⑤口口④ |⑥-⑦-|
49
④口⑤③ |①-②-|
口④③⑤ |③-④-|
口口口口 |----|
口②①口 |⑤---|
50
④⑤⑥口 |①---|
④⑤⑥口 |②-③-|
①①③② |④-⑤-|
①口①口 |⑥---|
51
②②口口 |①---|
②②口口 |----|
口口口口 |----|
①口口① |②---|
52
口⑥⑤④ |①---|
口⑥⑤④ |②-③-|
②③①① |④-⑤-|
口口①① |⑥---|
53
口④④口 |①---|
③口口③ |②---|
②③③② |③---|
①②②① |④---|
54
⑤口口④ |①---|
口①①口 |②-③-|
口口口口 |④-⑤-|
③⑦⑥② |⑥-⑦-|
55
口②①口 |①-②-|
口⑥⑥口 |③-④-|
④⑤⑤③ |----|
④口口③ |⑤-⑥-|
56
④①①⑤ |①---|
口口口口 |②-③-|
口口口口 |④-⑤-|
②⑥⑦③ |⑥-⑦-|
57
口①②口 |①-②-|
⑤⑤口口 |③-④-|
③⑤口④ |----|
③口口④ |⑤---|
58
⑤口口④ |①---|
口口①① |②-③-|
④口①⑤ |④---|
口②③口 |⑤---|
59
口口②② |①---|
①①①① |----|
口口③③ |②---|
口口口口 |③---|
60
②②口口 |①---|
④口口① |②---|
③③口口 |③---|
①①④④ |④---|
61
口③②① |①---|
口③口口 |②---|
口③③③ |③---|
①②口口 |----|
62
口口口① |①---|
口口①① |②-③-|
口口口口
②③口口

口口口⑥
口口⑥口
口口口口 |④-⑤-|
口口④⑤ |--⑥-|
63
口口③④ |--①-|
①口口口 |--②-|
口①口② |--③-|
口口②口 |④---|
64
①口口口 |①---|
①①口口 |②-③-|
口口口口
口口③②

⑥口口口
口⑥口口
口口口口 |④-⑤-|
⑤④口口 |--⑥-|
65
④③口口 |--①-|
口口口① |--②-|
②口①口 |--③-|
口②口口 |④---|
66
口口口口 |①---|
口口④口 |--②-|
③②口① |③---|
口口口口 |--④-|
67
口口④口 |①---|
③②口① |--②-|
口口口口 |③---|
口口口口 |--④-|
68
①③③② |①---|
口③③口 |--②-|
口①②口 |----|
口口口口 |③---|
69
口口口口 |--①-|
口④③口 |--②-|
②②②② |--③-|
①①①① |④---|
70
⑥口口⑦ |①-②-|
②口口① |③-④-|
口口口口 |⑤---|
④口⑤③ |⑥-⑦-|
71
口口口口 |①-②-|
④⑥⑥④ |③---|
①③口② |④-⑤-|
⑤⑦⑦⑤ |⑥-⑦-|

不確定度: 0

最終更新:2016年08月08日 01:09