SUSHI食べたい feat.ソイソース
ORANGE RANGE

EXTREME

Level: 8
BPM: 135
Notes: 544

1
口口口口 |----|
口口口口 |----|
口口口口 |----|
口口口口 |----|
2
口口口① |①-②-|
口②口③ |③-④⑤|
口口口口 |----|
口⑤④口 |----|
3
⑩⑪⑪⑤ |①②③④|
⑧④③⑨ |⑤-⑥⑦|
⑥②①⑦ |⑧⑨⑩-|
口口口口 |⑪---|
4
口口口① |①-②-|
口②口③ |③-④⑤|
口口口口 |----|
口⑤④口 |----|
5
⑩⑪⑪⑤ |①②③④|
⑧④③⑨ |⑤-⑥⑦|
⑥②①⑦ |⑧⑨⑩-|
口口口口 |⑪---|
6
口口口① |①-②-|
口②口③ |③-④⑤|
口口口口 |----|
口⑤④口 |----|
7
⑩⑪⑪⑤ |①②③④|
⑧④③⑨ |⑤-⑥⑦|
⑥②①⑦ |⑧⑨⑩-|
口口口口 |⑪---|
8
口口口① |①-②-|
口②口③ |③-④⑤|
口口口口 |----|
口⑤④口 |----|
9
⑨口口口 |①②③④|
⑦④③⑧ |--⑤⑥|
⑤②①⑥ |⑦⑧⑨-|
口口口口 |----|
10
口口⑦① |①-②-|
口⑥②口 |③-④-|
口⑤口③ |⑤⑥-⑦|
口口④口 |----|
11
口④口⑤ |①-②-|
③口口⑥ |③-④-|
口②⑦口 |⑤⑥-⑦|
①口口口 |----|
12
①口⑦口 |①-②-|
口②口⑥ |③-④-|
③口口⑤ |⑤⑥-⑦|
口④口口 |----|
13
①⑥⑥口 |①-②-|
口②口④ |③④-⑤|
口⑤⑤③ |----|
口口口口 |⑥---|
14
④口口口 |①-②-|
口③口⑤ |③-④-|
②口口⑥ |⑤⑥-⑦|
口①⑦口 |----|
15
口④口口 |①-②-|
③⑧⑧⑦ |③-④-|
口②⑥口 |⑤⑥-⑦|
①口⑤口 |--⑧-|
16
①⑦⑤③ |①-②-|
口口口口 |③-④-|
口口口口 |⑤-⑥-|
⑥②④⑧ |⑦-⑧-|
17
③口口③ |①---|
②④④口 |②---|
口口②① |③---|
口①口口 |④---|
18
口口口口 |①-②③|
口口⑥⑤ |④-⑤⑥|
④口③② |----|
①口口口 |----|
19
口口口口 |①-②③|
⑤⑥口口 |④-⑤⑥|
②③口④ |----|
口口口① |----|
20
口口口口 |①-②③|
口口⑥⑤ |④-⑤⑥|
④口③② |----|
①口口口 |----|
21
口④③口 |①-②-|
口①口② |③④-⑤|
口口⑤⑤ |----|
口②口① |----|
22
①①口③ |①-②-|
②②口口 |③-④⑤|
口口口④ |----|
口口⑤口 |----|
23
④口④口 |①-②-|
口③口③ |③-④-|
②口②口
口①口①

口口口口
口口⑤口
口⑥口口 |⑤⑥-⑦|
口⑦⑦口 |----|
24
③口①① |①-②-|
口口②② |③-④⑤|
④口口口 |----|
口⑤口口 |----|
25
口口口口 |①-②-|
⑤④⑤口 |③④-⑤|
口②③②
①口①口

口口口口
口口口口
口口口口 |-⑥-⑦|
⑦⑥⑦⑥ |----|
26
①①口③ |①-②-|
②②口口 |③-④⑤|
口口口④ |----|
口口⑤口 |----|
27
④口④口 |①-②-|
口③口③ |③-④-|
②口②口
口①口①

口口口⑩
口口⑤⑨
口⑥口⑧ |⑤⑥-⑦|
⑦口⑦口 |-⑧⑨⑩|
28
①①③口 |①-②-|
②②口口 |③-④⑤|
口口④口 |----|
口⑤口口 |----|
29
⑦④⑦④ |①-②-|
③⑥③口 |③-④-|
口②⑤② |⑤⑥-⑦|
①口①口 |----|
30
⑤口口⑤ |①--②|
口③②① |--③-|
口④④口 |--④-|
口③②① |⑤---|
31
口④④口 |①--②|
①②③口 |--③-|
口④④口 |----|
①②③口 |④---|
32
口口④② |①-②-|
口口口口 |③-④-|
①口口①
口③口口

口⑥口⑧
口口口口
口口口口 |⑤-⑥-|
⑤口⑦口 |⑦-⑧-|
33
①口口口 |①-②-|
口②⑤口 |③-④-|
口⑤③口 |--⑤-|
口口口④ |----|
34
②④口口 |①-②-|
口口口口 |③-④-|
①口口①
口口③口

⑧口⑥口
口口口口
口口口口 |⑤-⑥-|
口⑦口⑤ |⑦-⑧-|
35
口口口① |①-②-|
口⑤②口 |③-④-|
口③⑤口 |--⑤-|
④口口口 |----|
36
口④②口 |①-②-|
口口口口 |③-④-|
①口口①
口口③口

⑥口口⑦
口口口口
⑧口口口 |⑤-⑥-|
口⑤口口 |⑦-⑧-|
37
口口口口 |①-②-|
口④③口 |③-④-|
口②①口 |----|
口口口口 |----|
38
⑤口口⑤ |①--②|
④口口④ |--③-|
口口③口 |④-⑤-|
②口口① |----|
39
口②①口 |①--②|
口口③口 |--③-|
口④④口 |④-⑤-|
口⑤⑤口 |----|
40
⑦④③⑤ |①②③④|
⑧②①口 |⑤-⑥-|
⑨口口⑥ |⑦-⑧-|
口口口口 |⑨---|
41
口口口⑤ |①②③④|
⑦口口口 |⑤-⑥-|
⑧④③⑥ |⑦-⑧-|
⑨②①口 |⑨---|
42
口口口⑤ |①②③④|
⑦④③口 |⑤-⑥-|
⑧②①⑥ |⑦-⑧-|
⑨口口口 |⑨---|
43
⑦④③⑤ |①②③④|
⑧②①口 |⑤-⑥-|
⑨口口⑥ |⑦-⑧-|
口口口口 |⑨---|
44
口⑥口口 |①②③④|
⑦口口⑤ |⑤-⑥-|
⑧④③口 |⑦-⑧-|
⑨②①口 |⑨---|
45
口⑧⑦⑨ |①②③④|
口⑥⑤⑩ |⑤⑥⑦⑧|
口④③⑪ |⑨-⑩-|
口②①口 |⑪---|
46
④口③⑦ |①-②-|
⑥口⑤⑧ |③④⑤⑥|
口②口⑨ |⑦-⑧-|
口口①口 |⑨---|
47
⑥口⑦⑤ |①②③④|
⑧口口⑧ |⑤-⑥⑦|
⑨④③⑨ |⑧-⑨-|
⑩②①⑩ |⑩---|
48
口①⑤④ |①-②-|
⑨②口口 |③-④⑤|
⑧③口口 |--⑥⑦|
⑥⑦口口 |⑧-⑨-|
49
口④⑤① |①-②-|
⑨口口② |③④-⑤|
⑧口口③ |--⑥⑦|
⑥⑦口口 |⑧-⑨-|
50
口④⑤① |①-②-|
口⑩⑨② |③-④⑤|
⑧口口③ |--⑥⑦|
⑥⑦口口 |⑧-⑨⑩|
51
口④③① |①-②-|
②口口口 |③④-⑤|
口⑤口口
口口口口

⑥口口口
⑦口口口
⑧口口口 |--⑥-|
口口口口 |⑦-⑧-|
52
④口②② |①-②-|
口⑤口⑧ |③-④⑤|
口⑥⑥⑦ |--⑥-|
口③①口 |--⑦⑧|
53
②口④① |①-②-|
⑤口口⑦ |③-④-|
口口⑥⑧ |⑤-⑥-|
口③口口 |⑦-⑧-|
54
②②口④ |①-②-|
口口⑤⑧ |③-④⑤|
口⑥⑥⑦ |--⑥-|
①①③口 |--⑦⑧|
55
口③④① |①-②-|
⑦⑤⑥⑦ |③-④-|
⑥口口⑤ |⑤-⑥-|
④②②③ |⑦---|
56
②②口④ |①-②-|
口⑧⑤口 |③-④⑤|
⑥⑦口⑥ |--⑥-|
③③①① |--⑦⑧|
57
口①口④ |①-②-|
③口口② |③-④-|
口口口口
口口口口

⑥口口口
口⑥口⑦
口口口口 |⑤-⑥-|
⑤⑧口口 |⑦-⑧-|
58
口②口口 |①-②-|
②口⑤④ |③-④⑤|
口口口口
③口①①

⑥⑧⑦口
口口口口
口⑥口口 |--⑥-|
口口口口 |--⑦⑧|
59
口口口③ |①-②-|
②口③① |③-④-|
②口④①
口口口④

⑥口口口
⑦⑥口⑦
⑦⑤口⑦ |⑤-⑥-|
⑤⑨⑧口 |⑦-⑧⑨|
60
口①②① |①---|
口②口口 |----|
口口口口 |②---|
口口口口 |----|
61
口口口口 |①---|
口口口口 |----|
口①②口 |②---|
口②①口 |----|
62
①口口口 |①---|
口口①口 |----|
口①口口 |----|
口口口① |----|
63
③口口② |①---|
口①口口 |----|
口口①口 |②---|
口②③口 |③---|
64
口②①口 |①---|
口①②口 |----|
口口口口 |②---|
口口口口 |----|
65
口口口口 |①---|
口口口口 |----|
口②①口 |②---|
口①②口 |----|
66
口口口① |①---|
口①口口 |----|
口口①口 |----|
①口口口 |----|

不確定度: 0

最終更新:2017年07月30日 19:17