キミヱゴサーチ
ここなつ

ADVANCED

Level: 6
BPM: 120
Notes: 456

1
口口口口 |----|
口口口口 |----|
口口口口 |----|
①口口口 |--①-|
2
⑥口口口 |①--②|
②口口⑤ |--③-|
口④①口 |④--⑤|
口口口③ |--⑥-|
3
口口口口 |①--②|
③口①③ |--③-|
②口口口 |--④-|
口④④⑤ |--⑤-|
4
口口口⑥ |①--②|
⑤口口② |--③-|
口①④口 |④--⑤|
③口口口 |--⑥-|
5
口口口口 |①--②|
③①口③ |--③-|
口⑤口② |--④-|
口④④口 |--⑤-|
6
②口口⑤ |①--②|
口④①口 |--③-|
口⑥③口 |④--⑤|
口口口口 |--⑥-|
7
②口口口 |①--②|
口口①口 |--③-|
口口口口
口口③口

口口口口
口口⑦口
口⑥⑤口 |④-⑤-|
口④口口 |⑥-⑦-|
8
口①②口 |①--②|
①口口② |----|
④口口④ |③---|
③口口③ |④---|
9
口②③④ |①---|
口①①口 |----|
口①①口 |--②-|
口口口口 |③-④-|
10
口口口口 |①--②|
口口口④ |-③④-|
②②口③
口①口口

口口口口
⑦⑥⑤口
口⑧口口 |⑤-⑥-|
口口口口 |⑦-⑧-|
11
口口口口 |①--②|
④口口口 |-③④-|
③口②②
口口①口

口口口口
口⑤⑥⑦
口口⑧口 |⑤-⑥-|
口口口口 |⑦-⑧-|
12
口口口口 |①---|
口口口口 |②---|
①口口③ |③---|
②①③④ |④---|
13
①口口② |①---|
口①②口 |----|
③口口③ |②---|
口口口口 |③---|
14
⑧②⑥④ |①-②-|
①⑦③⑤ |③-④-|
口口口口 |⑤-⑥-|
口口口口 |⑦-⑧-|
15
口口口口 |①-②-|
口口口口 |③-④-|
⑤③⑦① |⑤-⑥-|
④⑥②⑧ |⑦-⑧-|
16
口口口口 |--①-|
口⑥①① |-②--|
②②⑤口 |③-④-|
口④③③ |⑤-⑥-|
17
②②①① |①---|
口④③口 |②---|
口⑥⑤口 |③-④-|
口口口口 |⑤-⑥-|
18
⑧②⑥④ |①-②-|
①⑦③⑤ |③-④-|
口口口口 |⑤-⑥-|
口口口口 |⑦-⑧-|
19
口口口口 |①-②-|
口口口口 |③-④-|
⑤③⑦① |⑤-⑥-|
④⑥②⑧ |⑦-⑧-|
20
口口口口 |①-②-|
⑤⑥②① |③-④-|
④③⑦⑧ |⑤-⑥-|
口口口口 |⑦-⑧-|
21
⑦⑥⑤口 |①-②-|
④③②① |③-④-|
口口口口 |⑤-⑥-|
口口口口 |⑦---|
22
③口口口 |①--②|
口口口② |--③-|
口①①口
口口口口

口④口口
口⑤口口
口⑥口口 |--④-|
口口口口 |⑤-⑥-|
23
口口④③ |①--②|
②口⑤口 |--③-|
口口⑥口 |--④-|
口①①口 |⑤-⑥-|
24
①②②① |①--②|
③④④③ |----|
口口口口 |③--④|
口口口口 |----|
25
口口口口 |①--②|
口口口口 |----|
①②②① |③--④|
③④④③ |----|
26
③口口口 |①--②|
口口口② |--③-|
口①①口
口口口口

口④口口
口⑤口口
口⑥口口 |--④-|
口口口口 |⑤-⑥-|
27
口口①口 |①-②-|
口⑦⑦② |③-④-|
⑥口③⑥ |--⑤-|
口⑤⑤④ |⑥-⑦-|
28
⑦口口⑦ |--①-|
⑥⑤⑤⑥ |②-③-|
③①②④ |④-⑤-|
①③④② |⑥-⑦-|
29
口①①口 |①---|
口口口口 |----|
口①①口 |----|
口口口口 |----|
30
②口口口 |①--②|
①③③② |--③-|
口口口①
口口口口

口口口口
口口口⑤
口口口口 |--④-|
口④④口 |--⑤-|
31
口口口④ |①②-③|
口⑥⑤口 |--④-|
口②①⑦ |⑤⑥-⑦|
口口口③ |----|
32
口口口② |①--②|
②③③① |--③-|
①口口口
口口口口

口口口口
⑤口口口
口口口口 |--④-|
口④④口 |--⑤-|
33
④口口口 |①②-③|
口口口口 |--④-|
口①②口
③口口口

口口口口
口口口⑤
口⑥⑦口 |⑤-⑥⑦|
口口口口 |----|
34
口口口口 |①--②|
口③③口 |--③-|
⑤⑥④口 |--④-|
①①②② |⑤-⑥-|
35
⑤口口⑤ |①--②|
②②口口 |--③-|
③④④③ |--④-|
口口①① |⑤---|
36
口口口口 |--①-|
口口口口 |②-③-|
①②③口 |--④-|
口⑥⑤④ |⑤-⑥-|
37
⑤口口⑤ |①-②-|
口④④口 |③-④-|
①②③口 |--⑤-|
口口口口 |----|
38
②口口口 |①--②|
口③②⑤ |--③-|
①口③口 |--④-|
④口①④ |--⑤-|
39
口口口④ |①②-③|
口口口口 |--④-|
口②①口
口口③口

口口口口
⑧⑥⑤口
口口⑦口 |⑤⑥-⑦|
口口口口 |--⑧-|
40
口口口② |①--②|
⑤②③口 |--③-|
口③口① |--④-|
④①口④ |--⑤-|
41
④口口口 |①②-③|
口口口口 |--④-|
口①②口
口③口口

口口口口
口⑤⑥⑧
口⑦口口 |⑤⑥-⑦|
口口口口 |--⑧-|
42
口②⑤口 |①--②|
②口口⑤ |--③-|
①⑥③④ |④--⑤|
口①④口 |--⑥-|
43
口口口口 |①--②|
口②②口 |--③-|
口口口口
①③③①

⑤口口⑤
口⑤⑤口
口④④口 |--④-|
口口口口 |⑤---|
44
口口口口 |--①-|
口口口口 |②-③-|
口③②① |--④-|
④⑤⑥口 |⑤-⑥-|
45
⑤口口⑤ |①-②-|
口④④口 |③-④-|
口③②① |--⑤-|
口口口口 |----|
46
口口口口 |--①-|
口口口口 |②-③-|
①②③口 |--④-|
口⑥⑤④ |⑤-⑥-|
47
⑤口口⑤ |①-②-|
口④④口 |③-④-|
①②③口 |--⑤-|
口口口口 |----|
48
口口口口 |①--②|
口口口④ |-③④-|
②②口③
口①口口

口口口口
⑦⑥⑤口
口⑧口口 |⑤-⑥-|
口口口口 |⑦-⑧-|
49
口口口口 |①--②|
④口口口 |-③④-|
③口②②
口口①口

口口口口
口⑤⑥⑦
口口⑧口 |⑤-⑥-|
口口口口 |⑦-⑧-|
50
口口口口 |①---|
口口口口 |②---|
①口口③ |③---|
②①③④ |④---|
51
①口口② |①---|
口①②口 |----|
③口口③ |②---|
口口口口 |③---|
52
⑧②⑥④ |①-②-|
①⑦③⑤ |③-④-|
口口口口 |⑤-⑥-|
口口口口 |⑦-⑧-|
53
口口口口 |①-②-|
口口口口 |③-④-|
⑤③⑦① |⑤-⑥-|
④⑥②⑧ |⑦-⑧-|
54
口口口口 |--①-|
口⑥①① |-②--|
②②⑤口 |③-④-|
口④③③ |⑤-⑥-|
55
②口口① |①--②|
②口口① |--③-|
口④③口 |④--⑤|
⑤⑧⑦⑥ |-⑥⑦⑧|
56
⑧②⑥④ |①-②-|
①⑦③⑤ |③-④-|
口口口口 |⑤-⑥-|
口口口口 |⑦-⑧-|
57
口口口口 |①-②-|
口口口口 |③-④-|
⑤③⑦① |⑤-⑥-|
④⑥②⑧ |⑦-⑧-|
58
口口口口 |①-②-|
⑤⑥②① |③-④-|
④③⑦⑧ |⑤-⑥-|
口口口口 |⑦-⑧-|
59
⑦⑥⑤口 |①-②-|
④③②① |③-④-|
口口口口 |⑤-⑥-|
口口口口 |⑦---|

不確定度: 0

最終更新:2016年06月10日 15:48