ススススペースハリネズミ
S-C-U
BASIC
Level: 4
BPM: 182
Notes: 312
1
口口口口 |----|
口口口口 |----|
口口口口 |----|
口口口口 |----|
2
口口口口 |①---|
①④④② |②---|
口③③口 |③---|
口口口口 |--④-|
3
口①①口 |----|
口口口口 |--①-|
口口口口 |----|
口口口口 |----|
4
口口口口 |----|
口口口口 |----|
口口口口 |----|
口口口口 |----|
5
口口口口 |----|
口口口口 |----|
口口口口 |----|
口口口口 |----|
6
口口口口 |①---|
①④④② |②---|
口③③口 |③---|
口口口口 |--④-|
7
口②②口 |----|
口口口口 |--①-|
口①①口 |----|
口口口口 |--②-|
8
口口口口 |----|
口口口口 |----|
口口口口 |----|
口口口口 |----|
9
口口口口 |----|
口口口口 |----|
口口口口 |----|
口口口口 |----|
10
口口口口 |①---|
①②③④ |②---|
口口口口 |③---|
口口口口 |④---|
11
口口口口 |①---|
④口口④ |②---|
③①②③ |③-④-|
口口口口 |----|
12
②⑥⑥④ |①-②-|
口口口口 |--③-|
口口口口 |④---|
①⑤⑤③ |⑤-⑥-|
13
口口口口 |①---|
①②③④ |②---|
口口口口 |③---|
口口口口 |④---|
14
②⑥⑥④ |①-②-|
口口口口 |--③-|
口口口口 |④---|
①⑤⑤③ |⑤-⑥-|
15
口口口口 |①---|
①②③④ |②---|
口口口口 |③---|
口口口口 |④---|
16
②⑤⑤④ |①-②-|
口口口口 |--③-|
口口口口 |④---|
①⑥⑥③ |⑤-⑥-|
17
口口口口 |①---|
口口口口 |②---|
①②③④ |③---|
口口口口 |④---|
18
①⑤⑤③ |①-②-|
口口口口 |--③-|
口口口口 |④---|
②⑥⑥④ |⑤-⑥-|
19
口口口口 |①---|
④③②① |②---|
口口口口 |③---|
口口口口 |④---|
20
②⑥⑥④ |①-②-|
口口口口 |--③-|
口口口口 |④---|
①⑤⑤③ |⑤-⑥-|
21
口口口口 |①---|
①②③④ |②---|
口口口口 |③---|
口口口口 |④---|
22
②⑥⑥④ |①-②-|
口口口口 |--③-|
口口口口 |④---|
①⑤⑤③ |⑤-⑥-|
23
口口口口 |①---|
①②③④ |②---|
口口口口 |③---|
口口口口 |④---|
24
②⑤⑤④ |①-②-|
口口口口 |--③-|
口口口口 |④---|
①⑥⑥③ |⑤-⑥-|
25
口口口口 |①---|
口口口口 |②---|
①②③④ |③---|
口口口口 |④---|
26
②②④④ |①-②-|
口口口口 |----|
口口口口 |③-④-|
①口口③ |----|
27
口∨∨口 |①---|
①||② |②---|
口④④口 |③---|
口③③口 |④---|
28
口③③口 |①---|
①∧∧② |--②-|
口①①口 |----|
口口口口 |③---|
29
口①①口 |----|
口口口口 |----|
口口口口 |----|
口口口口 |--①-|
30
口∨∨口 |①---|
①||② |--②-|
口||口 |----|
口③③口 |③---|
31
口口口口 |----|
口口口口 |----|
口口口口 |----|
口①①口 |--①-|
32
口③③口 |①---|
口||口 |--②-|
①||② |----|
口∧∧口 |③---|
33
口①①口 |----|
口口口口 |----|
口口口口 |----|
口口口口 |--①-|
34
∨∨∨∨ |①---|
③③③③ |--②-|
②②②② |----|
①①①① |③---|
35
口口口口 |----|
口口口口 |----|
口口口口 |----|
口口口口 |----|
36
口口口口 |----|
①①①① |----|
口口口口 |----|
口口口口 |①---|
37
①②③④ |①---|
口口口口 |②---|
口口口口 |③---|
口口口口 |④---|
38
口口口口 |①---|
口口口口 |----|
口①①口 |----|
口口口口 |----|
39
口口口口 |①---|
口①①口 |----|
口口口口 |----|
口口口口 |----|
40
口口口口 |----|
口口口口 |----|
口口口口 |----|
口口口口 |----|
41
①①②② |--①-|
口口口口 |----|
口口口口 |②---|
口口口口 |----|
42
口口口口 |①---|
口口口口 |----|
口口口口 |----|
口①①口 |----|
43
②口口② |①---|
口口口口 |----|
①口口① |②---|
口口口口 |----|
44
口口口口 |①-②-|
口②⑤口 |--③-|
口③③口 |--④-|
口①④口 |⑤---|
45
①②③④ |①---|
口口口口 |②---|
口口口口 |③---|
口口口口 |④---|
46
口口口口 |①---|
口口口口 |----|
口①①口 |----|
口口口口 |----|
47
口口口口 |①---|
口①①口 |----|
口口口口 |----|
口口口口 |----|
48
口口口口 |----|
口口口口 |----|
口口口口 |----|
口口口口 |----|
49
①①②② |--①-|
口口口口 |----|
口口口口 |②---|
口口口口 |----|
50
口口口口 |①---|
口②②口 |----|
口口口口 |②---|
口①①口 |----|
51
②<>② |①---|
口口口口 |--②-|
①口口① |----|
口口口口 |----|
52
①口口① |----|
口口口口 |----|
口口口口 |----|
口口口口 |①---|
53
④口口④ |①---|
口①①口 |----|
口口口口 |②-③-|
口②③口 |--④-|
54
⑥口口⑥ |--①-|
③④⑤③ |②-③-|
口①②口 |--④-|
口口口口 |⑤-⑥-|
55
②口口② |----|
口口口口 |----|
口口口口 |①---|
①口口① |--②-|
56
口口口口 |----|
口口口口 |----|
口口口口 |----|
口口口口 |----|
57
口口口口 |①---|
口①②口 |②---|
口③④口 |③---|
口口口口 |④---|
58
②口口② |----|
口口口口 |--①-|
口口口口 |----|
①口口① |--②-|
59
口口口口 |----|
口口口口 |----|
口口口口 |----|
口口口口 |----|
60
口口口口 |----|
口①①口 |----|
口口口口 |--①-|
口口口口 |----|
61
口口口口 |----|
口口口口 |----|
口口口口 |----|
口口口口 |----|
62
口口口口 |①---|
①口口① |----|
口口口口 |----|
口口口口 |----|
63
口口口口 |①---|
口②④口 |②---|
口①③口 |③---|
口口口口 |④---|
64
口口口口 |①---|
口口口口 |----|
口口口口 |----|
①口口① |----|
65
口口口口 |①---|
口口口口 |----|
①口口① |----|
口口口口 |----|
66
口口口口 |----|
口口口口 |----|
口口口口 |----|
口口口口 |----|
67
①①②② |--①-|
口口口口 |----|
口口口口 |②---|
口口口口 |----|
68
口口口口 |①---|
口口口口 |----|
口口口口 |----|
口①①口 |----|
69
口口口④ |①---|
②口口口 |②---|
口③③口 |③---|
口①①口 |④---|
70
口口口口 |①---|
②口口② |--②-|
口③④口 |--③-|
①口口① |④---|
71
①②③④ |①---|
口口口口 |②---|
口口口口 |③---|
口口口口 |④---|
72
口②②口 |①---|
口③③口 |----|
口口口口 |②---|
口①①口 |③---|
73
口口口口 |①---|
口口口口 |----|
口①①口 |②---|
②口口② |----|
74
口口口口 |----|
口口口口 |----|
口口口口 |----|
口口口口 |----|
75
①①②② |--①-|
口口口口 |----|
口口口口 |②---|
口口口口 |----|
76
口口口口 |①---|
②口口② |----|
②口口② |②---|
口①①口 |----|
77
口口口口 |①---|
口②②口 |--②-|
口口口口 |----|
①口口① |----|
78
口口口口 |----|
口口口口 |----|
口口口口 |----|
口口口口 |----|
79
①①②② |--①-|
口口口口 |----|
口口口口 |②---|
口口口口 |----|
80
②口口② |①---|
口口口口 |----|
②口口② |②---|
口①①口 |----|
81
③口口口 |①-②-|
口①②口 |--③-|
③口口口
口口口口
口口口④
⑤口口口
口口口④ |④---|
口⑤口口 |⑤-|
口口口口
口>―⑥
口口口口
>―⑥口 |⑥-|
82
口口口口 |----|
口口口口 |----|
口口口口 |----|
口口口口 |----|
83
口口口口 |----|
口口口① |----|
口口口口 |----|
口口①口 |--①-|
不確定度: 0