Diargosの森
Mutsuhiko Izumi
BASIC
Level: 4
BPM: 140
Notes: 272
1
口口口口 |----|
口口口口 |----|
口口口口 |----|
口口口口 |----|
2
口口口口 |①---|
∨口口口 |----|
|口口口 |----|
①口口口 |----|
3
口口口口 |----|
口口口口 |----|
口口口口 |----|
口口口口 |----|
4
口口口口 |①---|
口口口∨ |----|
口口口| |----|
①口口① |----|
5
口口口口 |----|
口口口口 |----|
口口口口 |----|
口口口口 |----|
6
口③口口 |①---|
口口②口 |②-③-|
口口口口 |----|
口①口① |----|
7
口③口口 |①---|
口口②口 |②-③-|
口口口口 |----|
口①口口 |----|
8
口③口口 |①---|
口口②口 |②-③-|
④口口④ |----|
口①口口 |④---|
9
①口口① |①---|
②口口② |②---|
③口口③ |③---|
④口口④ |④---|
10
口口∨口 |①---|
口口|口 |----|
口口|口 |----|
口口①口 |----|
11
口∨口口 |①---|
口|口口 |----|
口|口口 |----|
口①①口 |----|
12
口口口口 |①---|
口口口口 |----|
口②①① |----②-|
口①口口 |----|
13
口口口口 |①---|
口口①① |----|
口口②② |②---|
口口口口 |----|
14
口口口口 |①---|
∨口口口 |----|
|口口口 |----|
①口口口 |----|
15
口口口口 |①---|
口口口∨ |----|
口口口| |----|
①口口① |----|
16
③③⑥⑥ |①---②-|
②②⑤⑤ |--③---|
①①④④ |④---⑤-|
口口口① |--⑥---|
17
④口口④ |①---②-|
|③③| |--③---|
∧②②∧ |④---|
口①①口
⑤口口⑤
口口口口
口口口口
口口口口 |⑤---|
18
口③口口 |①---|
口口②口 |②-③-|
口口口口 |----|
口①口口 |----|
19
口③口口 |①---|
口口②口 |②-③-|
口口口口 |----|
口①口口 |----|
20
口③口口 |①---|
④口②④ |②-③-|
口口口口 |----|
口①口口 |④---|
21
④口口④ |①---|
③口口③ |②---|
②口口② |③---|
①口口① |④---|
22
口③③口 |①---|
口②②口 |②-③-|
口口口口 |----|
口①①口 |----|
23
口③③口 |①---|
口②②口 |②-③-|
口口口口 |----|
口①①口 |----|
24
口③③口 |①---|
④②②④ |②-③-|
口口口口 |----|
口①①口 |④---|
25
④口口④ |①---|
③口口③ |②---|
②口口② |③---|
①口口① |④---|
26
口∨口口 |①---|
口|口口 |----|
口①口口
口口口口
口口∨口
口口|口
口②②口 |②---|
口口口口 |----|
27
口口口口 |①---|
①①口口 |----|
||①口 |----|
∧∧口口 |----|
28
口口口口 |①---|
①①①口 |----|
口口|口
口口∧口
口②口口
口|②口
口∧口口 |②---|
口口口口 |----|
29
口①①① |①---|
口口|| |----|
口口∧∧ |----|
口口口口 |----|
30
口∨①① |①---|
口|口口 |----|
口①口口
口口口口
口口∨口
口口|口
口②②口 |②---|
口口口口 |----|
31
口口口口 |①---|
①口口口 |----|
|口①口
∧口口口
口口口口
②口口②
口口口| |②---|
口口口∧ |----|
32
①①口口 |①---|
||口① |----|
||口口 |----|
∧∧口口 |----|
33
口口①① |①---|
口口∧∧ |----|
口口口口
口口口口
②②②②
口口口口
口口口口 |②---|
口口口口 |----|
34
口口口口 |①---|
口①①口 |----|
口②口口 |--②-|
口口口口 |----|
35
口口口口 |①---|
口口口口 |----|
口口②口 |--②-|
口①口口 |----|
36
口口口口 |①---|
口口口口 |--②-|
③②口③ |----|
口口①口 |③---|
37
口口口口 |①---|
①口②① |----|
口口口口 |----|
口口口口 |②---|
38
口①①口 |①---|
口②口口 |----|
口口口口 |--②-|
口口口口 |----|
39
口口口口 |①---|
②②口③ |--②-|
口①口口 |----|
口口口口 |③---|
40
口口①① |①---|
口②②口 |--②-|
③口口③ |----|
口口口口 |③---|
41
口口口口 |①---|
口口口口 |----|
口口②口 |②---|
①③口① |③---|
42
口口口口 |①---|
∨口口口 |----|
|口口口
①口口口
口口口口
口口口口
口口③② |②---|
②口口口 |③---|
43
口口口口 |①---|
②③口口 |----|
口①口口 |②---|
口口口口 |③---|
44
口口①① |①---|
②②口口 |----|
口口口口 |②---|
口口口口 |----|
45
口口口口 |①---|
口口口口 |----|
①①口口 |②---|
口②②口 |----|
46
口口口口 |①---|
∨口口口 |----|
|口口口
①口口口
口口口口
口口口口
口口③② |②---|
②口口口 |③---|
47
口口口口 |①---|
②③口口 |----|
口①口口 |②---|
口口口口 |③---|
48
⑥⑥③③ |①---②-|
⑤⑤②② |--③---|
④④①① |④---⑤-|
口口口口 |--⑥---|
49
④口口④ |①---②-|
|③③| |--③---|
∧②②∧ |④---|
口①①口
⑤口口⑤
口口口口
口口口口
口口口口 |⑤---|
50
口口①口 |①---|
口口口口 |----|
口口②口 |--②-|
口口口口 |----|
51
口∨口口 |①---|
口|口口 |----|
口|口口 |----|
口①口口 |----|
52
口口∨口 |①---|
口口|口 |----|
口口|口 |----|
口①①口 |----|
53
∨口口口 |①---|
|口口口 |----|
①口口口
口口①口
口口口∨
口口口|
②口口② |②---|
口口口口 |----|
54
口∨口口 |①---|
口|口口 |----|
口①口① |----|
口口口口 |----|
55
口口∨口 |①---|
口口|口 |----|
口①①口 |----|
口口口口 |----|
56
口口口口 |①---|
口①口口 |----|
口|①口 |----|
口∧口口 |----|
57
口口①口 |①---|
口①|口 |----|
口口|口
口口∧口
②口②口
|口口口
|口口口 |②---|
∧口口口 |----|
58
①口口∨ |①---|
口口口| |----|
口口口①
口口口口
口∨口口
口|口口
口②口② |②---|
口口口口 |----|
59
口口口口 |①---|
口口①① |----|
口①|| |----|
口口∧∧ |----|
60
∨口口口 |①---|
|口①① |----|
①口口口
口口口口
口口②口
口口|口
②口∧口 |②---|
口口口口 |----|
61
口口①口 |①---|
①①口口 |----|
||口口 |----|
∧∧口口 |----|
62
口口∨口 |①---|
①①|口 |----|
口口①口
口口口口
口∨口口
口|口口
口②②口 |②---|
口口口口 |----|
63
口口口口 |①---|
口口①口 |----|
口①|口
口口∧口
口口口口
口②②口
口|口口 |②---|
口∧口口 |----|
64
口口①① |①---|
口①|| |----|
口口|| |----|
口口∧∧ |----|
65
①①口口 |①---|
∧∧口口 |----|
口口口口
口口口口
②②②②
口口口口
口口口口 |②---|
口口口口 |----|
66
口口口口 |----|
口口口口 |----|
口口口口 |----|
口口口口 |----|
67
口口口口 |----|
口口口口 |----|
口口口口 |----|
口口口口 |----|
68
口口口口 |①---|
∨∨∨∨ |----|
|||| |----|
①①①① |----|
69
口口口口 |----|
口口口口 |----|
口口口口 |----|
口口口口 |----|
70
口口口口 |①---|
口口口口 |----|
口口口口 |----|
①①①① |----|
不確定度: 0