STATIC
164 feat.GUMI
EXTREME
Level: 9
BPM: 255
Notes: 665
1
口口口口 |----|
口口口口 |----|
口口口③ |--①-|
口口②① |②-③-|
2
口口口口 |①-②-|
⑤④③② |③-④-|
⑥⑦①口 |⑤-⑥-|
⑧口口口 |⑦-⑧-|
3
④⑤口口 |①-②-|
口口口口 |--③-|
口口口③ |--④-|
口①②口 |⑤---|
4
口口③② |①---|
口①口④ |②-③-|
口口口⑤ |④---|
口口口口 |⑤---|
5
口口口口 |①-②-|
口口口口 |--③-|
①②口⑥ |--④-|
口③⑤④ |⑤-⑥-|
6
口④③② |①---|
口口口口 |②---|
口口①口 |③---|
口口口口 |④---|
7
口口口口 |①-②-|
①②口口 |--③-|
口③口⑥ |--④-|
口口⑤④ |⑤-⑥-|
8
⑤⑥④口 |①-②-|
口口③② |③---|
口口①口 |④---|
口口口口 |⑤-⑥-|
9
口口口口 |①-②-|
①②口口 |③-④-|
③④口口 |--⑤-|
口⑦⑥⑤ |⑥-⑦-|
10
⑦⑥口口 |①---|
口⑤④口 |②-③-|
口口③② |④-⑤-|
①口口口 |⑥-⑦-|
11
口⑥⑤④ |①-②-|
①口口口 |--③-|
②口口口 |--④-|
口③口口 |⑤-⑥-|
12
口口口口 |①-②-|
口①②口 |③-④-|
口⑦③④ |--⑤-|
口⑥⑤口 |⑥-⑦-|
13
口③⑤④ |①-②-|
②口口⑥ |--③-|
①口口口 |--④-|
口口口口 |⑤-⑥-|
14
口口口口 |①-②-|
③②①口 |③-④-|
⑤④口口 |⑤---|
口⑥口口 |⑥---|
15
④⑤口口 |①-②-|
⑥口③口 |--③-|
口口口② |--④-|
口口口① |⑤-⑥-|
16
口口口口 |①---|
口①口② |②---|
口③口④ |③---|
口口口口 |④---|
17
口口口口 |①-②-|
③口口口 |--③-|
④口口口 |--④-|
⑤①②⑤ |--⑤-|
18
④口③⑤ |①-②-|
口口⑦② |③-④-|
口⑥①口 |⑤---|
口口口口 |⑥-⑦-|
19
口①口口 |--①-|
①口口② |----|
①口口② |②---|
③口②口 |--③-|
20
口③⑤口 |①---|
口②口④ |②---|
口①口口 |③---|
口口口口 |④-⑤-|
21
①口口② |--①-|
口⑤⑥口 |②-③-|
③口口④ |④-⑤-|
⑦口口口 |⑥-⑦-|
22
⑤③口④ |①-②-|
②⑦口口 |③-④-|
口①⑥口 |⑤---|
口口口口 |⑥-⑦-|
23
口口①口 |--①-|
②口口① |----|
②口口① |②---|
口②口③ |--③-|
24
口⑤③口 |①---|
④口②口 |②---|
口口①口 |③---|
口口口口 |④-⑤-|
25
②口口① |--①-|
口口口口 |②-③-|
④口口③ |④-⑤-|
口⑥⑤⑦ |⑥-⑦-|
26
⑤口③④ |①-②-|
口口⑦② |③-④-|
口⑥①口 |⑤---|
口口口口 |⑥-⑦-|
27
口①口口 |--①-|
①口口② |----|
①口口② |②---|
③口②口 |--③-|
28
口③⑤口 |①---|
口②口④ |②---|
口①口口 |③---|
口口口口 |④-⑤-|
29
①口口② |--①-|
口⑤⑥口 |②-③-|
③口口④ |④-⑤-|
⑦口口口 |⑥-⑦-|
30
⑤③口④ |①-②-|
②⑦口口 |③-④-|
口①⑥口 |⑤---|
口口口口 |⑥-⑦-|
31
口口①口 |--①-|
②口③① |----|
②口口① |②---|
口②口口 |--③-|
32
③口口① |①---|
口②口④ |②-③-|
口口⑤口 |--④-|
口口口口 |⑤---|
33
口口口⑥ |①-②-|
①口口⑤ |----|
口②口④ |③-④-|
口口口③ |⑤-⑥-|
34
口①口口 |--①-|
③②口口 |--②-|
④⑤口口 |③---|
口口口口 |④-⑤-|
35
口口⑥口 |①-②-|
口口⑤口 |③-④-|
口口③④ |--⑤-|
口①②口 |--⑥-|
36
②①口口 |--①-|
③④口口 |②-③-|
⑥⑤口口 |④-⑤-|
⑦口口口 |⑥-⑦-|
37
口口口⑧ |①-②-|
口口⑥⑦ |③-④-|
口口⑤④ |⑤-⑥-|
口①②③ |⑦-⑧-|
38
③②①口 |①-②-|
口口口口 |③---|
④⑤口口 |④-⑤-|
⑥⑦口口 |⑥-⑦-|
39
口口口口 |--①-|
口⑤③① |②-③-|
⑦⑥④② |④-⑤-|
口口口口 |⑥-⑦-|
40
口口⑤④ |--①-|
口口口口 |--②-|
口口口③ |③---|
口①口② |④-⑤-|
41
②①口口 |①-②-|
③④口口 |③-④-|
口⑤⑥口 |⑤-⑥-|
口口⑦口 |⑦---|
42
口④③② |①---|
口口⑤口 |②---|
口口口① |③-④-|
口口口口 |⑤---|
43
口口口口 |①---|
⑥⑤口口 |②-③-|
口④①口 |④---|
口③②口 |⑤-⑥-|
44
①口②口 |①---|
口口③④ |②---|
口口口⑤ |③-④-|
口口口⑥ |⑤-⑥-|
45
口口口口 |①-②-|
口⑥口口 |③-④-|
④⑤口口 |⑤---|
③②①口 |⑥---|
46
口①②口 |①---|
口口③口 |②---|
口口④⑤ |③---|
口口口口 |④-⑤-|
47
口⑦口口 |①-②-|
口⑥口口 |③-④-|
⑤④口口 |⑤---|
口③②① |⑥-⑦-|
48
口口①② |①-②-|
⑥口④③ |③-④-|
⑦口⑤口 |⑤---|
口口口口 |⑥-⑦-|
49
口口口⑥ |①-②-|
口口口口 |③-④-|
口①口⑤ |⑤---|
口②③④ |⑥---|
50
口①②口 |①---|
①口口② |--②-|
口②①口 |----|
③口口③ |③---|
51
口口口口 |----|
口④口口 |①---|
口口①口 |②-③-|
口③②口 |--④-|
52
④口口① |①---|
口口②② |②---|
口③口③ |③---|
口口口口 |④---|
53
口口口口 |①---|
①①口口 |②---|
②口②口 |③---|
③④④③ |④---|
54
口②①口 |①---|
②口口① |--②-|
口①②口 |----|
③口口③ |③---|
55
口④口口 |----|
口③口口 |①-②-|
口口口口 |--③-|
口②①口 |--④-|
56
口口①② |①---|
口口②③ |②---|
口口④③ |③---|
口口口④ |④---|
57
④口口口 |①---|
③④口口 |②---|
③②口口 |③---|
②①①口 |④---|
58
口①②口 |①---|
③口口③ |--②-|
口②①口 |----|
②口口① |③---|
59
口口④口 |----|
口口口口 |①---|
口③口② |②-③-|
口口口① |--④-|
60
①口口④ |①---|
②②口口 |②---|
③口③口 |③---|
口口口口 |④---|
61
口口口口 |①---|
口口①① |②---|
口②口② |③---|
③④④③ |④---|
62
①③③② |①---|
口①②口 |--②-|
③②①③ |----|
口口口口 |③---|
63
口口口② |----|
口①口口 |----|
口口口口 |①---|
①口口口 |②---|
64
口②③口 |①---|
口口①口 |--②-|
②③②③ |----|
口①口口 |③---|
65
口口口口 |①---|
①口口口 |----|
口口口口 |②---|
②口口口 |----|
66
③②①④ |①---|
口口口口 |②---|
口口口口 |③---|
④③②① |--④-|
67
④②口口 |----|
②口③口 |①---|
①④口③ |②---|
口口口口 |③-④-|
68
口口②④ |----|
口③口② |①---|
③口④口 |②---|
①口口口 |③-④-|
69
③①口口 |----|
①口②④ |①---|
口③口④ |②-③-|
口口口② |--④-|
70
④②口口 |----|
②口③口 |①---|
口④口口 |②---|
①口口③ |③-④-|
71
口口口口 |----|
③口口口 |①---|
①口③② |②---|
口②①口 |③---|
72
④口口③ |①---|
口口③① |②---|
口①口口 |③---|
②④口口 |--④-|
73
口口①口 |----|
口口口口 |①---|
口口口口 |----|
②口口① |②---|
74
④口③口 |①---|
②口口口 |②---|
①口口口 |③---|
口④口③ |--④-|
75
口口④② |----|
口③②① |①---|
③口口④ |②---|
口口口口 |③-④-|
76
③口口口 |----|
口口③② |①---|
口②口口 |②---|
①口口口 |③---|
77
口④②口 |①---|
②①口⑤ |②---|
④口③① |③---|
③口⑤口 |④-⑤-|
78
①口口③ |----|
口③口口 |①---|
口口口② |②---|
口②口口 |③---|
79
口口口口 |①---|
①⑤④② |②---|
③②①口 |③---|
⑤口③④ |④-⑤-|
80
①口口口 |----|
③口口② |①---|
口③②口 |②---|
口②③口 |--③-|
81
口口口口 |----|
口口口口 |①---|
②口口口 |②---|
①口口③ |③---|
82
④口口③ |①---|
②口口口 |②---|
口口口① |③---|
口口③④ |--④-|
83
口口②④ |----|
口③口② |①---|
③口④口 |②---|
①口口口 |③-④-|
84
④②口口 |----|
②口③口 |①---|
口④口③ |②---|
口口口① |③-④-|
85
口口①③ |----|
④②口① |①---|
④口③口 |②-③-|
②口口口 |--④-|
86
口口②④ |----|
口③口② |①---|
口口④口 |②---|
③口口① |③-④-|
87
口口口口 |----|
口口口③ |①---|
②③口① |②---|
口①②口 |③---|
88
③口口④ |①---|
①口口口 |②---|
口口①口 |③---|
口③④② |--④-|
89
口①口口 |----|
口口口口 |①---|
口口口口 |----|
①口口② |②---|
90
口③口口 |①---|
口口口② |②---|
④口口① |③---|
③口口口 |④---|
91
口口口① |①---|
③口口口 |----|
口②③口 |②---|
口口①② |③---|
92
口口口口 |①---|
口①②③ |----|
②③口① |②---|
口口口口 |③---|
93
①②③④ |①---|
口口口口 |②---|
口口口口 |③---|
④①②③ |④---|
94
口口口口 |①---|
②①②① |----|
①②①② |②---|
口口口口 |----|
95
口①①口 |①---|
口口口口 |----|
口口口口 |②---|
②①①口 |----|
96
口口口口 |①---|
②口口口 |----|
①口口口 |②---|
口口口口 |----|
97
①口口口 |①---|
口口口口 |----|
口口口口 |②---|
②口口口 |----|
98
口口口口 |①---|
②口口口 |----|
①口口口 |②---|
口口口口 |----|
99
⑤口④口 |①-②-|
口口⑦③ |③-④-|
口⑥②口 |⑤---|
口口口① |⑥-⑦-|
100
口①口② |--①-|
口口口口 |----|
口口口口 |②---|
③①口② |--③-|
101
口③⑤口 |①---|
口②口④ |②---|
口①口口 |③---|
口口口口 |④-⑤-|
102
①口口② |--①-|
口⑤⑥口 |②-③-|
③口口④ |④-⑤-|
口⑦口口 |⑥-⑦-|
103
口④口⑤ |①-②-|
③⑦口口 |③-④-|
口②⑥口 |⑤---|
①口口口 |⑥-⑦-|
104
②口①口 |--①-|
口口口口 |----|
口口口口 |②---|
②口①③ |--③-|
105
口⑤③口 |①---|
④口②口 |②---|
口口①口 |③---|
口口口口 |④-⑤-|
106
②口口① |--①-|
口④③口 |②-③-|
⑥⑥⑤口 |④-⑤-|
口口⑦⑦ |⑥-⑦-|
107
口口①① |----|
口口②② |--①-|
口口③③ |②---|
口口口口 |③---|
108
口口口口 |----|
①口口口 |①---|
口①口口 |----|
①口①口 |----|
109
口口口口 |----|
口口口口 |----|
口口口口 |----|
口口口口 |----|
110
口口口口 |----|
口口口口 |----|
口口口口 |----|
口口口口 |----|
111
口口口口 |----|
口口口口 |----|
口口口口 |----|
口口口口 |----|
112
口口口口 |----|
口口口口 |----|
口口口口 |----|
口口口口 |----|
113
口口口口 |----|
口口口口 |----|
口口口口 |----|
口口口口 |----|
114
口口口口 |----|
口口口口 |----|
口口口口 |----|
口口口口 |----|
115
口口口口 |----|
口口口口 |----|
口口口口 |----|
口口口口 |----|
116
口口口口 |----|
口口口口 |----|
口口口口 |①---|
口口口① |----|
不確定度: 0