Silent Scream
Akira Yamaoka, Mary Elizabeth McGlynn
BASIC
Level: 3
BPM: 110
Notes: 236
1
口口口口 |----|
口口口口 |----|
口口口口 |----|
口口口口 |----|
2
口口口口 |①---|
口①①口 |----|
口①①口 |----|
口口口口 |----|
3
口口口口 |①---|
口口①口 |----|
口口口口 |----|
口口口口 |----|
4
口口口口 |①---|
口①口口 |----|
口口口口 |----|
口口口口 |----|
5
口口口口 |①---|
①口口口 |----|
口口口口 |----|
口口口口 |----|
6
口口口口 |①---|
口①①口 |----|
口①①口 |----|
口口口口 |----|
7
口口口口 |①---|
口口口口 |----|
口①口口 |----|
口口口口 |----|
8
口口口口 |①---|
口口口口 |----|
口口①口 |----|
口口口口 |----|
9
口口口口 |①---|
口口口口 |----|
口口口① |----|
口口口口 |----|
10
口口口口 |①---|
口①①口 |----|
口①①口
口口口口
口口口口
口口②口
口口口口 |②---|
口口口口 |----|
11
口口口口 |①---|
②①口口 |----|
口口口口 |②---|
口口口口 |----|
12
口口口口 |①---|
口口口口 |----|
①②口口 |②---|
口口口口 |----|
13
口口口口 |①---|
口口口口 |----|
口口①② |②---|
口口口口 |----|
14
口口口口 |①---|
口①①口 |----|
口①①口
口口口口
口口口口
口②口口
口口口口 |②---|
口口口口 |----|
15
口口口口 |①---|
口口①② |----|
口口口口 |②---|
口口口口 |----|
16
口口口口 |①---|
口口口口 |----|
口口②① |②---|
口口口口 |----|
17
口④口口 |①---|
口③口口 |②---|
口②口口 |③---|
口①口口 |④---|
18
口口④③ |①---|
口①①② |②---|
口①①口 |③---|
口口口口 |④---|
19
②①口口 |①---|
③口口口 |②---|
④口口口 |③---|
口口口口 |④---|
20
口口口口 |①---|
口①①口 |②---|
口①①②
口口口口
口口口口
口口④③
口口口口 |③---|
口口口口 |④---|
21
口口口口 |①---|
②①口口 |②---|
③口口口 |③---|
口口口口 |----|
22
口口④③ |①---|
口①①② |②---|
口①①口 |③---|
口口口口 |④---|
23
②①口口 |①---|
③口口口 |②---|
④口口口 |③---|
口口口口 |④---|
24
口口口口 |①---|
口①①口 |②---|
口①①口 |③---|
口②③④ |④---|
25
口口④③ |①---|
口口口② |②---|
口口口① |③---|
口口口口 |④---|
26
②口口口 |①---|
③①①口 |②---|
④①①口 |③---|
口口口口 |④---|
27
口口口口 |①---|
口口口口 |②---|
口口口口 |③---|
①②③④ |④---|
28
口口④③ |①---|
口①①② |②---|
口①①口 |③---|
口口口口 |④---|
29
②①口口 |①---|
③口口口 |②---|
④口口口 |③---|
口口口口 |④---|
30
口④③② |①---|
口①①口 |②---|
口①①口 |③---|
口口口口 |④---|
31
①口口口 |①---|
②口口口 |②---|
③口口口 |③---|
④口口口 |④---|
32
口口口口 |①---|
口①①口 |②---|
口①①口 |③---|
口④③② |④---|
33
④口口口 |①---|
③口口口 |②---|
②口口口 |③---|
①口口口 |④---|
34
口口口口 |①---|
口①①④ |②---|
口①①③ |③---|
口口口② |④---|
35
④③②① |①---|
口口口口 |②---|
口口口口 |③---|
口口口口 |④---|
36
口口口口 |①---|
④①①口 |②---|
③①①口 |③---|
②口口口 |④---|
37
口①①口 |①---|
口②②口 |②---|
口③③口 |③---|
口④④口 |④---|
38
口口②口 |①---|
口①①口 |②---|
口①①口
口口口口
口③口口
口口④口
口口口口 |③---|
口口口口 |④---|
39
口口口口 |①---|
口①口口 |②---|
口③②口 |③---|
口口④口 |④---|
40
③口口② |①---|
口①①④ |②---|
口①①口 |③---|
口口口口 |④---|
41
口口口口 |①---|
①口口口 |②---|
③口口② |③---|
口口口口 |----|
42
口口口④ |①---|
口①①③ |②---|
口①①② |③---|
口口口口 |④---|
43
④口口口 |①---|
③口口口 |②---|
②口口口 |③---|
①口口口 |④---|
44
口②①口 |①---|
口④③口 |②---|
口口口口 |③---|
口口口口 |④---|
45
口口口口 |①---|
口口口口 |②---|
口②①口 |③---|
口④③口 |④---|
46
④口口口 |①---|
③①①口 |②---|
②①①口 |③---|
口口口口 |④---|
47
口口口④ |①---|
口口口③ |②---|
口口口② |③---|
口口口① |④---|
48
口①①口 |①---|
口②②口 |②---|
口③③口 |③---|
口④④口 |④---|
49
口口口口 |①---|
③口口③ |②---|
②口口② |③---|
①口口① |----|
50
口口口口 |①---|
口①①口 |②---|
口③②口 |③---|
口口④口 |④---|
51
口口口口 |①---|
口口口口 |②---|
口口口④ |③---|
③①口② |④---|
52
口口④口 |①---|
口③②口 |②---|
口①①口 |③---|
口口口口 |④---|
53
①口口① |①---|
②口口② |②---|
③口口③ |③---|
口口口口 |----|
不確定度: 1