Kiss Kiss
Chris Brown featuring T-Pain

EXTREME

Level: 6
BPM: 140
Notes: 530

1
口口口口 |----|
口口口口 |----|
口口口口 |----|
口口口口 |----|
2
⑤⑦⑧⑥ |①-②-|
口③④口 |③-④-|
①口口② |⑤-⑥-|
口口口口 |⑦-⑧-|
3
口口口口 |①-②-|
①③④② |③-④-|
⑤⑦⑧⑥ |⑤-⑥-|
口口口口 |⑦-⑧-|
4
口①①口 |①---|
口②③口 |②-③-|
④口口④ |--④-|
口⑤⑤口 |--⑤-|
5
口④④口 |①-②-|
①④④口 |③---|
口②③口 |④---|
口口口口 |----|
6
⑥⑧⑦⑤ |①-②-|
口④③口 |③-④-|
②口口① |⑤-⑥-|
口口口口 |⑦-⑧-|
7
口口口口 |①-②-|
②④③① |③-④-|
⑥⑧⑦⑤ |⑤-⑥-|
口口口口 |⑦-⑧-|
8
口①①口 |①---|
口②③口 |②-③-|
④口口④ |--④-|
口⑤⑤口 |--⑤-|
9
口④④口 |①-②-|
口④④① |③---|
口③②口 |④---|
口口口口 |----|
10
口口口口 |①-②-|
⑤⑦⑧⑥ |③-④-|
口③④口 |⑤-⑥-|
①口口② |⑦-⑧-|
11
①③④② |①-②-|
⑤⑦⑧⑥ |③-④-|
口口口口 |⑤-⑥-|
口口口口 |⑦-⑧-|
12
口⑤⑤口 |①---|
④口口④ |②-③-|
口②③口 |--④-|
口①①口 |--⑤-|
13
口口口口 |①-②-|
口②③口 |③---|
①④④口 |④---|
口④④口 |----|
14
口口口口 |①-②-|
⑥⑧⑦⑤ |③-④-|
口④③口 |⑤-⑥-|
②口口① |⑦-⑧-|
15
口口口口 |①-②-|
口口口口 |③-④-|
②④③① |⑤-⑥-|
⑥⑧⑦⑤ |⑦-⑧-|
16
口口口口 |①---|
口①①口 |②-③-|
④②③④ |--④-|
口⑤⑤口 |--⑤-|
17
口③②口 |①-②-|
口口口① |③---|
口口口口
口口口口

口口口口
⑤④④⑥
口④④口 |④---|
口口口口 |⑤-⑥-|
18
①口口② |①-②-|
⑤③④⑥ |③-④-|
口⑦⑧口 |⑤-⑥-|
口口口口 |⑦-⑧-|
19
口⑦⑧口 |①-②-|
⑤③④⑥ |③-④-|
①口口② |⑤-⑥-|
口口口口 |⑦-⑧-|
20
①口口⑤ |①-②-|
口②⑥口 |③-④-|
口⑦③口 |⑤-⑥-|
⑧口口④ |⑦-⑧-|
21
口⑤①口 |①-②-|
口②⑥口 |③-④-|
口⑦③口 |⑤-⑥-|
口④⑧口 |⑦-⑧-|
22
④口口⑧ |①-②-|
③口口⑦ |③-④-|
②口口⑥ |⑤-⑥-|
①口口⑤ |⑦-⑧-|
23
口口口口 |①-②-|
①⑥②⑤ |③-④-|
⑧③⑦④ |⑤-⑥-|
口口口口 |⑦-⑧-|
24
口②②口 |①---|
口口口口 |②---|
④③③④ |③---|
口①①口 |④---|
25
③③④④ |①-②-|
①①②② |----|
口口口口 |③---|
口口口口 |④---|
26
②③④⑤ |①---|
口①①⑥ |②-③-|
口①①口 |④-⑤-|
口口口口 |⑥---|
27
口口口口 |①---|
口①①口 |--②-|
⑥①①口 |③-④-|
⑤④③② |⑤-⑥-|
28
②③④⑤ |①---|
口①①⑥ |②-③-|
口①①口 |④-⑤-|
口口口口 |⑥---|
29
口口口口 |①---|
口①①口 |--②-|
⑥①①口 |③-④-|
⑤④③② |⑤-⑥-|
30
①口口口 |①---|
⑤④③② |--②-|
口口口口 |③-④-|
口口口口 |⑤---|
31
口口口口 |①---|
口口口口 |--②-|
口口口① |③-④-|
②③④⑤ |⑤---|
32
①口口① |①---|
口②③口 |--②-|
口④④口 |③---|
口口口口 |--④-|
33
⑤口口⑥ |①-②-|
⑦口口⑧ |③-④-|
③口口④ |⑤-⑥-|
①口口② |⑦-⑧-|
34
⑤⑦⑧⑥ |①-②-|
口③④口 |③-④-|
①口口② |⑤-⑥-|
口口口口 |⑦-⑧-|
35
口口口口 |①-②-|
①③④② |③-④-|
⑤⑦⑧⑥ |⑤-⑥-|
口口口口 |⑦-⑧-|
36
口①①口 |①---|
口②③口 |②-③-|
④口口④ |--④-|
口⑤⑤口 |--⑤-|
37
口④④口 |①-②-|
①④④口 |③---|
口②③口 |④---|
口口口口 |----|
38
⑥⑧⑦⑤ |①-②-|
口④③口 |③-④-|
②口口① |⑤-⑥-|
口口口口 |⑦-⑧-|
39
口口口口 |①-②-|
②④③① |③-④-|
⑥⑧⑦⑤ |⑤-⑥-|
口口口口 |⑦-⑧-|
40
口①①口 |①---|
口②③口 |②-③-|
④口口④ |--④-|
口⑤⑤口 |--⑤-|
41
口④④口 |①-②-|
口④④① |③---|
口③②口 |④---|
口口口口 |----|
42
口口口口 |①-②-|
⑤⑦⑧⑥ |③-④-|
口③④口 |⑤-⑥-|
①口口② |⑦-⑧-|
43
①③④② |①-②-|
⑤⑦⑧⑥ |③-④-|
口口口口 |⑤-⑥-|
口口口口 |⑦-⑧-|
44
口⑤⑤口 |①---|
④口口④ |②-③-|
口②③口 |--④-|
口①①口 |--⑤-|
45
口口口口 |①-②-|
口②③口 |③---|
①④④口 |④---|
口④④口 |----|
46
口口口口 |①-②-|
⑥⑧⑦⑤ |③-④-|
口④③口 |⑤-⑥-|
②口口① |⑦-⑧-|
47
口口口口 |①-②-|
口口口口 |③-④-|
②④③① |⑤-⑥-|
⑥⑧⑦⑤ |⑦-⑧-|
48
口口口口 |①---|
口①①口 |②-③-|
④②③④ |--④-|
口⑤⑤口 |--⑤-|
49
口③②口 |①-②-|
口④④① |③---|
口④④口 |④---|
口口口口 |----|
50
①口②口 |①-②-|
口③口④ |③-④-|
⑤口⑥口 |⑤-⑥-|
口⑦口⑧ |⑦-⑧-|
51
口①⑤口 |①-②-|
口⑥②口 |③-④-|
口③⑦口 |⑤-⑥-|
口⑧④口 |⑦-⑧-|
52
①口口⑤ |①-②-|
②口口⑥ |③-④-|
③口口⑦ |⑤-⑥-|
④口口⑧ |⑦-⑧-|
53
口①⑤口 |①-②-|
口⑥②口 |③-④-|
口③⑦口 |⑤-⑥-|
口⑧④口 |⑦-⑧-|
54
③口口④ |①---|
②口口② |②---|
①口口① |--③-|
口口口口 |--④-|
55
口口口口 |①---|
⑤②②⑤ |②---|
④①①④ |--③-|
口③③口 |④-⑤-|
56
②①①② |①---|
⑥③③⑥ |②-③-|
口④④口 |④---|
⑤口口⑤ |⑤-⑥-|
57
②口口② |①-②-|
④口口④ |----|
①口口① |③-④-|
口③③口 |----|
58
②③④⑤ |①---|
口①①⑥ |②-③-|
口①①口 |④-⑤-|
口口口口 |⑥---|
59
口口口口 |①---|
口①①口 |----|
口①①口 |②-③-|
⑤④③② |④-⑤-|
60
②③④口 |①---|
口①①口 |----|
口①①口 |②-③-|
口口口口 |④---|
61
口口口口 |①---|
口①①口 |----|
口①①口 |②-③-|
⑤④③② |④-⑤-|
62
②口口口 |①---|
口③口口 |--②-|
①口④口 |③-④-|
口口口⑤ |⑤---|
63
口口口② |①---|
口口③口 |--②-|
①④口① |③-④-|
⑤口口口 |⑤---|
64
口口口口 |①---|
①口口① |②---|
②③③② |--③-|
口口口口 |----|
65
口口口口 |①---|
④口口④ |②---|
口③③口 |③---|
①②②① |④---|
66
⑤⑦⑧⑥ |①-②-|
口③④口 |③-④-|
①口口② |⑤-⑥-|
口口口口 |⑦-⑧-|
67
口口口口 |①-②-|
①③④② |③-④-|
⑤⑦⑧⑥ |⑤-⑥-|
口口口口 |⑦-⑧-|
68
口①①口 |①---|
口②③口 |②-③-|
④口口④ |--④-|
口⑤⑤口 |--⑤-|
69
口④④口 |①-②-|
①④④口 |③---|
口②③口 |④---|
口口口口 |----|

不確定度: 0

最終更新:2016年04月18日 00:32