Silent Story
発熱巫女~ず

EXTREME

Level: 7
BPM: 126
Notes: 563

1
口口口口 |----|
口口口口 |----|
口口口③ |--①-|
口②①口 |②-③-|
2
口②③① |①--②|
口口口③ |--③-|
口口口口 |----|
口口④口 |--④-|
3
③口口口 |①--②|
②③①口 |--③-|
口口口口 |----|
④口口口 |--④-|
4
④口③⑤ |①--②|
①口②③ |--③-|
口口口口 |--④-|
口⑥口⑦ |⑤-⑥⑦|
5
①口口② |----|
口口口口 |----|
口口口口 |--①-|
②口口① |-②--|
6
口口③口 |①--②|
②口①③ |--③-|
口口口口 |----|
口口口④ |--④-|
7
口口口③ |①--②|
口②③① |--③-|
口口口口 |----|
④口口口 |--④-|
8
④口③⑤ |①--②|
①口②③ |--③-|
口口口口 |--④-|
口⑥口⑦ |⑤-⑥⑦|
9
口④口口 |--①-|
③⑤口口 |②-③-|
⑥②①口 |④-⑤-|
⑦口口口 |⑥-⑦-|
10
⑧口口口 |--①②|
⑦⑥⑤① |③--④|
口④口② |⑤-⑥-|
口口口③ |⑦-⑧-|
11
口口①① |①-②-|
口④口口 |③-④-|
口口④口
②②③③

⑥⑤⑤⑥
口口口口
口口口口 |--⑤-|
口口口口 |⑥---|
12
口口口⑥ |--①②|
①口口⑦ |③--④|
②⑤⑧口 |⑤-⑥-|
③口④⑧ |⑦-⑧-|
13
口口口② |--①-|
口口②口 |②---|
口①口口 |----|
①口口口 |----|
14
口口④口 |--①②|
口⑤①⑧ |③--④|
⑦口②口 |⑤-⑥-|
口口③⑥ |⑦-⑧-|
15
①②③口 |①-②-|
口口口口 |③-④-|
口口口口
口④④口

⑤口口⑤
口口口口
口口口口 |--⑤-|
⑥口口⑥ |--⑥-|
16
⑦口口④ |--①②|
①②③口 |③---|
口⑤⑥口 |④-⑤⑥|
口口口口 |--⑦-|
17
口口口口 |①-②③|
口④⑤① |-④-⑤|
④口口⑤ |----|
口②③口 |----|
18
口口口① |--①②|
口口②口 |③--④|
口③口口
口口④口

口口口⑧
口口口⑦
口口口⑥ |⑤-⑥-|
口⑤口口 |⑦-⑧-|
19
口①④口 |①-②-|
①口口④ |③-④-|
③口②口
口③口②

口口口⑥
⑥口口口
口⑤口口 |--⑤-|
口口⑤口 |⑥---|
20
①口口口 |--①②|
口②口口 |③--④|
口口③口
口④口口

口口口口
⑥⑧口口
口口口⑦ |⑤-⑥-|
口口⑤口 |⑦-⑧-|
21
②②①① |①-②-|
口口⑤口 |③-④⑤|
口④口口 |----|
口口③③ |----|
22
口口口① |--①②|
口口②口 |③--④|
口③口口
口口④口

口口口⑧
口口口⑦
口口口⑥ |⑤-⑥-|
口⑤口口 |⑦-⑧-|
23
口①④口 |①-②-|
①口⑦④ |③-④-|
③⑥②口 |--⑤-|
⑤③⑤② |⑥⑦--|
24
口口口② |①---|
口口口② |②---|
口口口口
口①口①

③口口口
③口⑤口
口口口口 |③--④|
④⑤口④ |--⑤-|
25
⑤③②④ |①-②-|
⑤①口④ |③-④⑤|
口②③口
口口①口

口口⑥口
口口口口
口口⑥口 |----|
口口口口 |--⑥-|
26
口②口口 |①---|
③口口① |②-③-|
口②口口 |----|
③口④① |--④-|
27
⑦⑥⑤④ |①-②③|
口③⑧口 |--④-|
口⑨②口 |⑤-⑥-|
口①口口 |⑦-⑧⑨|
28
口口①① |----|
口②口口 |①-②③|
口口③口 |----|
④口口口 |--④-|
29
口②口口 |①-②-|
口口①口 |--③-|
口口口口
口口③③

口⑤④④
口口口口
口⑤口口 |--④-|
口口口口 |--⑤-|
30
口口②口 |①---|
①口口③ |②-③-|
口口②口 |----|
①口④③ |--④-|
31
⑧口②⑤ |①-②③|
口③口口 |--④-|
⑥口口④ |⑤-⑥-|
①口⑦口 |⑦-⑧-|
32
口③③口 |①-②③|
口②①口 |--④-|
口①口口
口口口④

⑦口口⑧
口⑦口⑥
⑤口⑥口 |⑤-⑥-|
⑧⑤口口 |⑦-⑧-|
33
⑤口③⑤ |----|
口口口③ |①-②-|
口②口口 |③---|
④口①④ |④-⑤-|
34
口口②口 |----|
②①口口 |----|
口口①② |----|
口②口口 |①-②-|
35
口③口① |----|
③②口口 |----|
口口②③ |--①-|
①口③口 |②③--|
36
口口①口 |①-②③|
④⑤口口 |--④⑤|
口①口口
口③口②

口口口⑥
口口⑦⑥
口⑧⑩⑦ |⑥-⑦⑧|
⑧口⑨口 |--⑨⑩|
37
①口口② |①---|
②口⑦口 |②---|
③口④② |③-④-|
⑤⑥口口 |⑤-⑥⑦|
38
口口①口 |--①-|
口②口① |②---|
②口口口
口口口口

口口口⑤
口⑥口口
口口口口 |③---|
④口口③ |④-⑤⑥|
39
口①口口 |--①-|
口口②① |②-③④|
②口口口
口③口④

口⑦口⑤
⑦⑥口口
口口⑥⑦ |--⑤-|
⑤口⑦口 |⑥⑦--|
40
①口①口 |①-②③|
口口②口 |--④-|
口③口口
口口口④

口⑥口⑤
口⑥口⑤
口⑧⑦口 |⑤--⑥|
口口口口 |--⑦⑧|
41
②⑤⑤① |----|
口②①口 |①-②-|
口④④口 |--③-|
口③③口 |④-⑤-|
42
②口口② |①-②-|
④④④④ |③-④-|
③口口③
①口口①

口口⑥口
口口口口
口⑥口口 |--⑤-|
⑤⑤⑤⑤ |--⑥-|
43
口①口口 |--①-|
②口口② |②---|
口口①口
口口口口

口⑤口③
⑤④口口
口口④⑤ |--③-|
③口⑤口 |④⑤--|
44
口口③口 |①-②③|
④口口口 |--④⑤|
②⑤口口
口①口①

口口口口
口⑥口⑥
口口口⑩ |⑥-⑦⑧|
口⑧⑦⑨ |--⑨⑩|
45
①口口口 |①---|
②口⑦② |②---|
③口②口 |③-④-|
⑤⑥口④ |⑤-⑥⑦|
46
口口①口 |--①-|
口②口① |②---|
②口口口
口口口口

口口口口
口⑥口口
口口⑤口 |③---|
④口口③ |④-⑤⑥|
47
④口①口 |--①-|
②口③口 |②-③④|
口④口①
口②口③

口⑦口⑤
⑦⑥口口
口口⑥⑦ |--⑤-|
⑤口⑦口 |⑥⑦--|
48
③口②口 |①-②③|
口口口口 |--④⑤|
口①⑤口
口④口①

口⑥口⑨
⑧⑥⑨口
口口口⑦ |⑥--⑦|
口口口⑦ |--⑧⑨|
49
②口口⑤ |----|
④②⑤口 |①-②-|
①④口③ |--③-|
口①③口 |④-⑤-|
50
③口口口 |①-②-|
口③口② |③-④-|
①口②④
口①④口

口口口口
口口口口
口⑥⑥口 |--⑤-|
⑤口口⑤ |--⑥-|
51
②②②② |--①-|
口①①口 |②---|
口⑤口⑤ |③---|
④口口③ |④-⑤-|
52
口④口④ |①-②-|
①口①口 |③-④-|
③口口口
口②口②

⑧口口口
口⑧口口
口口⑦⑤ |⑤-⑥-|
⑥口⑥⑦ |⑦-⑧-|
53
口口口① |①-②-|
口口②② |③-④-|
③③口口
口口④④

口口口⑥
口⑤口口
口口⑦口 |⑤-⑥-|
⑥口口口 |⑦---|
54
口口⑥④ |①-②-|
①②⑥④ |③-④-|
⑤口⑧口 |⑤-⑥-|
口⑦口③ |⑦-⑧-|
55
①①口口 |①--②|
②②④④ |--③④|
③③口口
口口口口

口⑥⑦⑤
口⑥口口
口口⑦⑤ |----|
口口口口 |⑤-⑥⑦|
56
①口口口 |①---|
②口口口 |②-③-|
口口口口
口口口③

⑥⑧口⑦
口⑤口口
口⑧④⑦ |④-⑤-|
口口口口 |⑥-⑦⑧|
57
口口口口 |①---|
口口①口 |②-③-|
口口口口
③口②③

口④④口
口⑤⑤口
口⑥⑥口 |④-⑤-|
口⑦⑦口 |⑥-⑦-|
58
②口口① |①--②|
④③③④ |--③④|
②口口① |⑤---|
⑤⑦⑦⑥ |⑥-⑦-|
59
②口口① |①--②|
④③③④ |--③④|
②口口①
口口口口

口口口口
口口口口
⑦口口口 |⑤---|
⑤⑧口⑥ |⑥-⑦⑧|
60
口口口口 |----|
口口口口 |----|
口口口口 |----|
口口口口 |----|
61
口口口口 |----|
口口口口 |----|
口口口口 |----|
口口口口 |----|
62
口口口口 |①-②-|
口口⑤口 |③-④-|
①②③④ |----|
口口口口 |-⑤--|
63
口口②口 |①--②|
口①③口 |--③-|
口④口口 |④---|
口⑤口口 |-----⑤--|
64
口口口口 |-①②-|
口口②口 |----|
口口①口 |----|
口口口口 |----|

不確定度: 0

最終更新:2016年07月27日 16:38