キセキ [2]
BASIC
Level: 5
BPM: 94
Notes: 168
1
口口口口 |----|
口口口口 |----|
口口口口 |----|
口口口口 |----|
2
口口口口 |①---|
口①②口 |----|
口口口口 |②---|
口口口口 |----|
3
>③③< |①---|
口②②口 |②---|
口①①口 |③---|
口口口口
口④④口
口口口口
口口口口
口口口口 |④---|
4
口口口口 |①---|
口口口口 |----|
①口口② |②---|
口口口口 |----|
5
口口口口 |①---|
口③③口 |②---|
口②②口 |③---|
口①①口 |----|
6
口口口口 |①---|
①口口② |----|
口口口口 |②---|
口口口口 |----|
7
口①①口 |①---|
口②②口 |②---|
口③③口 |③---|
口口口口 |----|
8
口口口口 |①---|
口②②口 |----|
口口口口 |②---|
①口口① |----|
9
口口口口 |①---|
口∨∨口 |----|
口||口
口①①口
口口口口
口口口口
口口口口 |②---|
口②②口 |----|
10
口口口口 |①---|
口口口口 |----|
①②口口 |②---|
口口口口 |----|
11
口口口口 |①---|
口口口口 |----|
口口①② |②---|
口口口口 |----|
12
口口口口 |①---|
口口②① |----|
口口口口 |②---|
口口口口 |----|
13
口口口口 |①---|
②①口口 |----|
口口口口 |②---|
口口口口 |----|
14
口口口口 |①---|
口口口口 |----|
口②口口 |②---|
口口①口 |----|
15
口②口口 |①---|
口口①口 |----|
口口口口 |②---|
口口口口 |----|
16
口口口① |①---|
②口口口 |----|
口口口口 |②---|
口口口口 |----|
17
口口口口 |①---|
口③③口 |----|
口口口① |②---|
口②②口 |③---|
18
口口口口 |①---|
③④口口 |②---|
②①口口 |③---|
口口口口 |④---|
19
口口口口 |①---|
口口④③ |②---|
口口①② |③---|
口口口口 |④---|
20
①口口① |①---|
②口口② |----|
口口口口 |②---|
口口口口 |----|
21
口口口口 |①---|
口口口口 |----|
①③口① |②---|
②口口② |③---|
22
∨口口口 |①---|
|口口口 |②---|
②口①口
口口口口
口口口口
口口口口
③口④口 |③---|
口口口口 |④---|
23
口口口∨ |①---|
口口口| |②---|
口①口②
口口口口
口口口口
口口口口
口口口③ |③---|
口口口口 |----|
24
口①①口 |①---|
口②②口 |----|
口口口口 |②---|
口口口口 |----|
25
口口口口 |①---|
口口口口 |----|
口①①口 |②---|
>②②<
口口口口
口口口口
口口口口
口③③口 |③---|
26
口口口口 |①---|
②①口口 |②---|
③④口口 |③---|
口口口口 |④---|
27
口口口口 |①---|
口口①② |②---|
口口④③ |③---|
口口口口 |④---|
28
口口口口 |①---|
口口口口 |②---|
②口口④ |③---|
①口口③ |④---|
29
口③<口 |①---|
口②口口 |②---|
口①口口 |③---|
口口口口
口④口口
口口④口
口口口口
口口口口 |④---|
30
口口口口 |①---|
口①口② |②---|
口口口|
口口口∧
口口口口
口口口③
口④口口 |③---|
口口口口 |④---|
31
口口口口 |①---|
②口口口 |②---|
|口①口
∧口口口
口口口口
③口口口
口口口口 |③---|
口口口口 |----|
32
口口口口 |①---|
②②①① |----|
口口口口 |②---|
口口口口 |----|
33
口口口口 |①---|
口②②口 |②---|
口①①口
口口口口
34
>①①< |①---|
口口口口 |----|
口口口口 |----|
口口口口 |----|
35
口①①口 |----|
②口口② |①---|
口口口口 |②---|
口口口口 |----|
36
口口口口 |①---|
口口口口 |----|
①口口① |②---|
②口口② |----|
37
口口口口 |①---|
>①①< |----|
口口口口 |----|
口口口口 |----|
38
口口口口 |①---|
口①①口 |----|
口口口口 |----|
口口口口 |----|
39
口口口口 |----|
口口口口 |----|
口口口口 |----|
口口口口 |----|
40
①口口口 |①---|
口②口口 |----|
口口口口 |②---|
口口口口 |----|
41
口口口口 |①---|
口口口∨ |----|
口口①| |②---|
口口口②
口口口口
口口口口
口口口口
口口口③ |③---|
42
口口口口 |①---|
①口②口 |----|
口口口口 |②---|
口口口口 |----|
43
口口口口 |①---|
口③③口 |----|
口①口② |②---|
口口口口 |③---|
44
②①①② |①---|
③口口③ |②---|
口④④口 |③---|
口口口口 |④---|
45
口①①口 |①---|
②口口② |----|
口口口口 |②---|
口口口口 |----|
46
口④④口 |①---|
口③③口 |②---|
口②②口 |③---|
口①①口 |④---|
47
①口口① |①---|
|口口| |----|
|口口|
∧口口∧
②口口②
口口口口
口口口口 |----|
口口口口 |②---|
不確定度: 0