M.A.Y.U.
Ryu☆ feat.MAYU
ADVANCED
Level: 5
BPM: 128
Notes: 347
1
口口口口 |----|
口口口口 |----|
口口口口 |----|
口口口口 |----|
2
口口口④ |①---|
口口口③ |②---|
口口口口 |③---|
①②口口 |④---|
3
④口口口 |①---|
③口口口 |②---|
口口口口 |③---|
口口②① |④---|
4
口口口④ |①---|
口口口③ |②---|
口口口口 |③---|
①②口口 |④---|
5
④口口口 |①---|
③口口口 |②---|
口口口口 |③---|
口口②① |④---|
6
口④③口 |①---|
口⑥⑤口 |②---|
②②口口 |③-④-|
①①口口 |⑤-⑥-|
7
口③④口 |①---|
口⑤⑥口 |②---|
口口②② |③-④-|
口口①① |⑤-⑥-|
8
口④③口 |①---|
口⑥⑤口 |②---|
②②口口 |③-④-|
①①口口 |⑤-⑥-|
9
口③④口 |①---|
口⑤⑥口 |②---|
口口②② |③-④-|
口口①① |⑤-⑥-|
10
①口口① |①---|
口②②口 |----|
口③③口 |②---|
口口口口 |③---|
11
口口口口 |①---|
口口口口 |----|
口②②口 |②---|
口①①口 |----|
12
口口口口 |①---|
口③③口 |----|
口②②口 |②---|
①口口① |③---|
13
口①①口 |①---|
口口口口 |----|
口口口口
口口口口
口③③口
口②②口
口口口口 |②---|
口口口口 |③---|
14
①口口① |①---|
口②②口 |----|
口③③口 |②---|
口口口口 |③---|
15
口口口口 |①---|
口口口口 |----|
口②②口 |②---|
口①①口 |----|
16
口口口口 |①---|
④③②① |②---|
④③②① |③---|
口口口口 |④---|
17
⑤口口⑤ |①-②-|
⑥口口⑥ |③-④-|
口④③口 |⑤---|
口②①口 |⑥---|
18
口口口口 |①-|
口∨口口
口①口口
口口口口
口口口口 |-②|
口口∨口
口②②口
口口口口
口口口口
∨口口口 |--③-|
③口③口
口口口口
口口口口
口口口口
④口口口 |----|
口口口口 |④---|
19
口口口口 |①-|
口口∨口
口口①口
口口口口
口口口口 |-②|
口∨口口
口②②口
口口口口
口口口口
口口口∨ |--③-|
口③口③ |----|
口口口口 |----|
20
口口口口 |①---|
∨∨口口 |----|
||口① |----|
①①口口 |----|
21
口口口口 |----|
口口口口 |----|
口口口口 |----|
①①口口 |①---|
22
口口口口 |①-|
口口∨口
口口①口
口口口口
口口口口 |-②|
口∨口口
口②②口
口口口口
口口口口
口口口∨ |--③-|
口③口③
口口口口
口口口口
口口口口
口口口④ |----|
口口口口 |④---|
23
口口口口 |①-|
口∨口口
口①口口
口口口口
口口口口 |-②|
口口∨口
口②②口
口口口口
口口口口
∨口口口 |--③-|
③口③口 |----|
口口口口 |----|
24
口口口口 |①---|
口口∨∨ |----|
①口|| |----|
口口①① |----|
25
口口口口 |----|
口口口口 |----|
口口口口 |----|
口口①① |①---|
26
口口口口 |①-|
口∨口口
口①口口
口口口口
口口口口 |-②|
口口∨口
口②②口
口口口口
口口口口
∨口口口 |--③-|
③口③口
口口口口
口口口口
口口口口
④口口口 |----|
口口⑤④ |④-⑤-|
27
口口口口 |①-|
口口∨口
口口①口
口口口口
口口口口 |-②|
口∨口口
口②②口
口口口口
口口口口
口口口∨ |--③-|
口③口③ |----|
口口口口 |----|
28
口口②口 |①--②|
∨∨口③ |--③-|
||口①
①①口口
口口口口
口口④口
口口口⑤ |-④--|
口口口口 |⑤---|
29
口口②① |①--②|
口口④③ |--③-|
口口口⑤ |-④--|
⑤⑤口口 |⑤---|
30
口口口口 |①-|
口∨口口
口①口口
口口口口
口口口口 |-②|
口口∨口
口②②口
口口口口
口口口口
∨口口口 |--③-|
③口③口
口口口口
口口口口
口口口口
④口口口 |----|
口口⑤④ |④-⑤-|
31
口口口口 |①-|
口口∨口
口口①口
口口口口
口口口口 |-②|
口∨口口
口②②口
口口口口
口口口口
口口口∨ |--③-|
口③口③ |----|
口口口口 |----|
32
口⑦⑧口 |①-②-|
口⑤⑥口 |③-④-|
口③④① |⑤-⑥-|
口①②口 |⑦-⑧-|
33
口口口口 |①---|
②③④② |②---|
①④③① |③---|
口口口口 |④---|
34
①①①① |①---|
口⑥⑤③ |②-③-|
口口口口 |④-⑤-|
口口④② |⑥---|
35
口⑦口口 |①---|
口口⑥口 |②-③-|
口①①⑤ |④-⑤-|
②④口③ |⑥-⑦-|
36
口口口① |①---|
口口口① |②-③-|
②③口口
口口口口
口口⑤⑦
口口口口
口口④⑥ |④-⑤-|
口口口口 |⑥-⑦-|
37
④②⑥口 |①-②-|
口⑦⑦口 |③-④-|
③①⑤口 |⑤-⑥-|
口口口口 |⑦---|
38
①口口① |①---|
口⑥⑤③ |②-③-|
口口口口 |④-⑤-|
口口④② |⑥---|
39
口⑦口口 |①---|
口口⑥口 |②-③-|
口①①⑤ |④-⑤-|
②④口③ |⑥-⑦-|
40
口口①① |①---|
口口口口 |②-③-|
②③口口
口口口口
口口⑤⑦
口口口口
口口④⑥ |④-⑤-|
口口口口 |⑥-⑦-|
41
④②口口 |①-②-|
口口口口 |③-④-|
③①口口
口口口口
口⑥⑥口
口⑤⑤口
口口口口 |⑤---|
口口口口 |⑥---|
42
①口口① |①---|
①③口① |②-③-|
口口②口
口口口口
口口口⑥
口口④⑦
口⑤口口 |④-⑤-|
口口口口 |⑥-⑦-|
43
口口口口 |①-②-|
口④③口 |③-④-|
②口口口
①口口口
⑥口口⑦
⑥口口⑦
⑧口⑤口 |⑤-⑥-|
⑧口口口 |⑦-⑧-|
44
⑦④⑤⑥ |①---|
口口③口 |②-③-|
口②口口 |④-⑤-|
口口①① |⑥-⑦-|
45
口口口口 |①-②-|
口④②口 |③-④-|
⑥③①⑤ |⑤-⑥-|
口⑦⑦口 |⑦---|
46
⑤①①⑥ |①---|
口④③② |②-③-|
⑦口口口 |④-⑤-|
口口口口 |⑥-⑦-|
47
⑥⑥⑦⑦ |①-②-|
①②口⑤ |③-④-|
口③口④ |⑤-⑥-|
⑧⑧口口 |⑦-⑧-|
48
口⑤⑦口 |①---|
口②③口 |②-③-|
口④⑥① |④-⑤-|
口口口① |⑥-⑦-|
49
口口口口 |①-②-|
②口口① |③-④-|
④⑥⑥③ |⑤---|
口⑤⑤口 |⑥---|
50
①①口口 |①---|
∧∧口口 |----|
口口口口 |----|
口口口口 |----|
51
①①>① |①---|
口口>① |----|
口口口口 |----|
口口口口 |----|
52
口口口① |①---|
口口口① |----|
∨∨口口 |----|
①①口口 |----|
53
口口口口 |----|
口口口口 |----|
口口口口 |----|
口口口口 |----|
54
口口①① |①---|
口口∧∧ |----|
口口口口 |----|
①①口口 |----|
55
①<①① |①---|
①<口口 |----|
口口口口 |----|
口口口口 |----|
56
①口口口 |①---|
①口口口 |----|
口口∨∨ |----|
口口①① |----|
57
口口口口 |----|
口口口口 |----|
口口口口 |----|
口口口口 |----|
58
①①口口 |①---|
口口口口 |----|
口口口口 |----|
口口①① |----|
不確定度: 0