にんじゃりばんばん [2]
きゃりーぱみゅぱみゅ
BASIC
Level: 3
BPM: 130
Notes: 232
1
口口口口 |----|
口口口口 |----|
口口口口 |----|
口口口口 |----|
2
口口口口 |①---|
口∨口口 |----|
口|口口
口①口口
口口∨口
口口|口
口口②口 |②---|
口②口口 |----|
3
口∨口口 |①---|
口|口口 |----|
口①①口
口口口口
口口口口
口口∨口
口②|口 |②---|
口口②口 |----|
4
口口口口 |①---|
∨口口口 |----|
|口口口
①口①口
口口口口
口口口∨
口口口| |②---|
②口口② |----|
5
口∨口口 |①---|
口|口口 |----|
口①口口
口口口①
口口∨口
口口|口
口②②口 |②---|
口口口口 |----|
6
∨口口口 |①---|
|口口口 |----|
|口①口
①口口口
口∨口口
口|口口
口|口口 |②---|
②②口口 |----|
7
口口∨口 |①---|
口口|口 |----|
口口|口
口①①口
口口口∨
口口口|
口口口| |②---|
口口②② |----|
8
口∨口口 |①---|
口|口口 |----|
口①口口 |----|
口口口① |----|
9
口口口② |①---|
口口③口 |----|
口①口口 |②---|
口口口口 |③---|
10
口口③③ |①---|
口口④④ |②---|
口②口口 |③---|
口口①口 |④---|
11
③③口口 |①---|
④④口口 |②---|
口口②口 |③---|
口①口口 |④---|
12
口口口口 |①---|
口口口口 |----|
口②口口 |②---|
口口①口 |----|
13
口②口口 |①---|
口口①口 |----|
口口口口 |②---|
口口口口 |----|
14
③③口口 |①---|
④④口口 |②---|
口口②口 |③---|
口①口口 |④---|
15
口口③③ |①---|
口口④④ |②---|
口②口口 |③---|
口口①口 |④---|
16
口口口口 |①---|
口①口口 |②---|
口③②口 |③---|
口口④口 |④---|
17
口口口口 |①---|
口③口口 |②---|
口口②口 |③---|
口①口口 |----|
18
口口③③ |①---|
口口④④ |②---|
口②口口 |③---|
口口①口 |④---|
19
③③口口 |①---|
④④口口 |②---|
口口②口 |③---|
口①口口 |④---|
20
口口口口 |①---|
口口口口 |----|
口②口口 |②---|
口口①口 |----|
21
口②口口 |①---|
口口①口 |----|
口口口口 |②---|
口口口口 |----|
22
③③口口 |①---|
④④口口 |②---|
口口②口 |③---|
口①口口 |④---|
23
口口③③ |①---|
口口④④ |②---|
口②口口 |③---|
口口①口 |④---|
24
口①口口 |①---|
口②口口 |②---|
口③④口 |③---|
口口口口 |④---|
25
口口口口 |①---|
口口口口 |②---|
口③口口 |③---|
口①②口 |----|
26
口口口口 |①---|
∨口②口 |----|
|口口口 |----|
①口口口 |②---|
27
口口口口 |①---|
口∨②口 |----|
口|口口 |----|
①①口口 |②---|
28
口口口口 |①---|
∨口②口 |----|
|口口口 |----|
①①口口 |②---|
29
口口口口 |①---|
口∨口口 |----|
口|口口
①①口口
口口口口
口口口口
口口口口 |②---|
口②口口 |----|
30
口口口口 |①---|
口>―① |----|
口口口口
口口口口
口口口口
口②口②
口口口口 |----|
口口口口 |②---|
31
口口口口 |①---|
口口口口 |----|
口>―①
口口口口
口口口口
口③口口
口口口② |②---|
口口口口 |③---|
32
口口口口 |①---|
口口口口 |----|
①―<口
口口口口
口口口口
口口③口
②口口口 |②---|
口口口口 |③---|
33
口口口口 |①---|
口口口口 |----|
口>―①
口口口口
口口口口
②―<口
口口口② |②---|
口口口口 |----|
34
口>―① |①---|
①口口口 |----|
口口口口
口口口口
口口口②
口口口口
口③口口 |②---|
口口口口 |③---|
35
口口口口 |①---|
口④口口 |②---|
口口③口 |③---|
口②①口 |④---|
36
口②①口 |①---|
口口口口 |----|
口口口口 |②---|
口口口口 |----|
37
口口口① |----|
口口②口 |----|
口口口口 |①---|
口口口口 |②---|
38
口口口口 |①---|
口口口口 |----|
口①―<
口口口口
口口口口
口口口口
口②口口 |②---|
口口③口 |③---|
39
口口口口 |①---|
口>―① |----|
口口口口
口口口口
口口口口
口②口②
口口口口 |----|
口口口口 |②---|
40
口口口口 |①---|
口口口口 |----|
>―①口
口口口口
口口口口
口口口口
口口②口 |②---|
口③口口 |③---|
41
口④口③ |①---|
②口口口 |②---|
口口口① |③---|
口口口口 |④---|
42
口口∨口 |①---|
口口|口 |----|
口口①口
口口口口
口口口口
口口口口
口②②口 |②---|
口口口口 |----|
43
∨口口口 |①---|
|口口口 |----|
①口口口
口口口口
口口口∨
口口口|
②口口② |②---|
口口口口 |----|
44
口∨口口 |①---|
口|口口 |----|
口|口① |----|
口①口口 |----|
45
口口口② |①---|
口口③口 |----|
口口口口 |②---|
口①①口 |③---|
46
口口③③ |①---|
口口④④ |②---|
口②口口 |③---|
口口①口 |④---|
47
③③口口 |①---|
④④口口 |②---|
口口②口 |③---|
口①口口 |④---|
48
口口口口 |①---|
口口口口 |----|
口②口口 |②---|
口口①口 |----|
49
口②口口 |①---|
口口①口 |----|
口口口口 |②---|
口口口口 |----|
50
③③口口 |①---|
④④口口 |②---|
口口②口 |③---|
口①口口 |④---|
51
口口③③ |①---|
口口④④ |②---|
口②口口 |③---|
口口①口 |④---|
52
口口口口 |①---|
口①口口 |②---|
口③②口 |③---|
口口④口 |④---|
53
口口口口 |①---|
口③口口 |②---|
口口②口 |③---|
口①口口 |----|
54
口口③③ |①---|
口口④④ |②---|
口②口口 |③---|
口口①口 |④---|
55
③③口口 |①---|
④④口口 |②---|
口口②口 |③---|
口①口口 |④---|
56
口口口口 |①---|
口口口口 |----|
口②口口 |②---|
口口①口 |----|
57
口②口口 |①---|
口口①口 |----|
口口口口 |②---|
口口口口 |----|
58
③③口口 |①---|
④④口口 |②---|
口口②口 |③---|
口①口口 |④---|
59
口口③③ |①---|
口口④④ |②---|
口②口口 |③---|
口口①口 |④---|
60
口①口口 |①---|
口②口口 |②---|
口③④口 |③---|
口口口口 |④---|
61
口口口口 |①---|
口口口口 |②---|
口③口口 |③---|
口①②口 |----|
62
口口口口 |①---|
①口口① |----|
①口口① |----|
口口口口 |----|
不確定度: 0