にんじゃりばんばん [2]
きゃりーぱみゅぱみゅ
EXTREME
Level: 8
BPM: 130
Notes: 600
1
口口口口 |----|
口口口口 |----|
口口口口 |----|
口口口口 |----|
2
口口口④ |①-②-|
口口口③ |③-④-|
∨口口②
①口口①
口口⑤口
口∨⑥口
口⑤⑦口 |⑤-⑥-|
⑤口⑧口 |⑦-⑧-|
3
∨口口④ |①-②-|
①口口③ |③-④-|
口①口②
口口口①
口⑤⑤口
⑤∧⑥口
口口⑦口 |⑤-⑥-|
口口⑧口 |⑦-⑧-|
4
口①口④ |①-②-|
口口口③ |③-④-|
①口口②
∧口口①
口口⑤口
口∨⑥口
⑤⑤⑦口 |⑤-⑥-|
口口⑧口 |⑦-⑧-|
5
∨口口④ |①-②-|
①口口③ |③-④-|
口①口②
口口口①
口⑤⑤口
⑤∧⑥口
口口⑦口 |⑤-⑥-|
口口⑧口 |⑦-⑧-|
6
①①口④ |①-②-|
|口口③ |③-④-|
∧口口②
口口口①
⑤口⑤口
口⑤⑥口
口|⑦口 |⑤-⑥-|
口∧⑧口 |⑦-⑧-|
7
口口口④ |①-②-|
∨①口③ |③-④-|
|口口②
①口口①
口口⑤口
口口⑥口
口∨口口 |⑤-⑥-|
⑤⑤口口
口口口口
∨口口口
⑦口⑦口
口⑦⑧口 |⑦-⑧-|
8
口∨⑤④ |①-②-|
口①⑥③ |③-④-|
①口⑦② |⑤-⑥-|
口口⑧① |⑦-⑧-|
9
口⑤③口 |①---|
⑤①口③ |--②-|
④口口⑥ |③-④-|
②④⑥① |⑤-⑥-|
10
口口口口 |①---|
∨口口口
|口口口
①口口口
④④③口
口②⑤口 |②-③-|
⑧⑥口⑦ |④-⑤⑥|
②⑧⑦口 |⑦-⑧-|
11
口口口口 |①---|
口口口∨
口口口|
口口口①
口③④④
口⑤②口 |②-③-|
⑦口⑥⑧ |④-⑤⑥|
口⑦⑧② |⑦-⑧-|
12
∨口口口 |①---|
|口口口
|口口口
①口口口
口∨口口
口|口口 |②---|
口②口口
②口口口
口口∨口
口口|口
口③③口 |③---|
口口口口
口④口口
④口⑤口
口口④⑤
口口口口 |④-⑤-|
13
①口②口 |①-②-|
口①口② |③-④-|
③口④口
口③口④
⑨口口⑧
⑨⑦⑥⑧
口⑤口口 |⑤-⑥⑦|
⑤口口口 |⑧-⑨-|
14
口口口口 |①---|
口口口∨
口口口|
口口口①
口③④④
口⑤②口 |②-③-|
⑦口⑥⑧ |④-⑤⑥|
口⑦⑧② |⑦-⑧-|
15
口口口口 |①---|
∨口口口
|口口口
①口口口
口口③口
口②口口 |②-③-|
口口口口
②口口口
④④口口
口⑧⑤口
⑧⑥口⑦ |④-⑤⑥|
口口⑦口 |⑦-⑧-|
16
口口>① |①---|
口口口口
口口口口
口口口口
口口口②
口口②口 |②---|
口口∧口
口口口口
口口口口
口∨③口
口③口口 |③---|
口口口口
口口口口
口口口口
口④⑤口
④口口口 |④-⑤-|
17
①⑧口口 |①-②-|
⑧⑦⑧② |③-④-|
③⑧口⑥ |⑤-⑥⑦|
口⑤口④ |⑧---|
18
口口口口 |①---|
∨口口口
|口口口
①口口口
④④③口
口②⑤口 |②-③-|
⑧⑥口⑦ |④-⑤⑥|
②⑧⑦口 |⑦-⑧-|
19
口口口口 |①---|
口口口∨
口口口|
口口口①
口③④④
口⑤②口 |②-③-|
⑦口⑥⑧ |④-⑤⑥|
口⑦⑧② |⑦-⑧-|
20
口口口口 |①---|
>―①口
口口口口
口口口口
口口∨口
口口②口 |②---|
口口②口
口口口口
口口口口
口口口口
口③③< |③---|
口口口口
口口口口
口口口口
⑤④口口
口口④口 |④-⑤-|
21
口③③① |①-②-|
口④②④ |③-④-|
口口口口
口口口口
⑨口口⑥
⑦口口口
⑤⑤口⑧ |⑤-⑥⑦|
⑤⑤口口 |⑧-⑨-|
22
口口口口 |①---|
口口口∨
口口口|
口口口①
口③④④
口⑤②口 |②-③-|
⑦口⑥⑧ |④-⑤⑥|
口⑦⑧② |⑦-⑧-|
23
口口口口 |①---|
∨口口口
|口口口
①口口口
口口③口
口②口口 |②-③-|
口口口口
②口口口
④④口口
口⑧⑤口
⑧⑥口⑦ |④-⑤⑥|
口口⑦口 |⑦-⑧-|
24
口口∨口 |①---|
口口|口
口口①口
口口口口
口口口口
口口口口 |②---|
口②②<
口口口口
口口口口
口③口口
口③口口 |③---|
口∧口口
口口口口
口④④口
⑤口口口
口口口口 |④-⑤-|
25
⑥②①口 |①-②-|
②⑤⑤① |③-④-|
口④③口 |⑤---|
④⑤⑤③ |⑥---|
26
口>―① |①-②-|
口③④口 |③④⑤⑥|
口⑤⑥口
②口口口
⑦⑧口⑨
⑨口口口
⑩口口口 |⑦-⑧-|
口口口口 |⑨-⑩-|
27
口口口口 |①-②-|
口⑥⑤口 |③④⑤⑥|
口④③口
①―<②
口口⑧⑦
口口口口
口口⑩口 |⑦-⑧-|
⑨口口⑨ |⑨-⑩-|
28
口口口口 |①-②-|
口①―<
口口口口
口口②口
口口⑧口
④⑨口③ |③④⑤⑥|
⑥⑩口⑤ |⑦-⑧-|
⑨口口⑦ |⑨-⑩-|
29
口口口口 |①-②-|
②④①口 |③-④-|
口口|口
口③∧口
⑤⑥⑦⑧
⑯口⑤⑨
⑮口口⑩ |⑤⑥⑦⑧⑨⑩|
⑭⑬⑫⑪ |⑪⑫⑬⑭⑮⑯|
30
口∨口口 |①---|
口|口口 |----|
口①口口
口口口口
口口口②
③口口口
口②口④ |--②-|
口口口口 |③-④-|
31
口口口口 |①---|
口口口口 |----|
口口口口
口①―<
口口口口
口口③口
④口口口 |②---|
口②口口 |③-④-|
32
口口口口 |①---|
口口口∨ |----|
口口口|
口口口①
口口口口
口③口口
口口④口 |②---|
口口口② |③-④-|
33
口口口口 |①---|
口口口口 |----|
口口口口
①<口口
口口口口
口口口口
②―<口 |②---|
②口口口 |----|
34
口口口口 |①---|
①――< |----|
①口口口
口口口口
口口④③
②口口口
口口口口 |②---|
口口口口 |③-④-|
35
口①口口 |①---|
口|口口
口∧口口
口口口口
口②口口
口口②口 |②---|
口口|口
口口∧口
口口口口
口口③口
口口口③ |③---|
口口口∧
口口口口
口口口口
口∨口④
口④口口 |④---|
36
口口口口 |①---|
∨口口口
|口口口
①①口口
口口∨口
口口|口 |--②-|
口口②口 |----|
②口口口 |----|
37
①―<口 |----|
口口口口 |----|
口口①口 |①---|
口口口口
②口口口
②―<口
口口口口
口口口口 |②---|
38
口口口口 |①---|
①口口口 |----|
①<口口
口口口口
口口口口
口口③口
②④口口 |②---|
口口口口 |③-④-|
39
口口口口 |①---|
口口口口 |----|
口口口口
口口>①
②口口口
口口口口
④口③口 |--②-|
口口口② |③-④-|
40
口口口口 |①---|
口口∨口 |----|
口口|口
口口①口
口口口口
口口④口
口③口口 |②---|
口口②口 |③-④-|
41
口口口口 |①---|
口口口口
口口口口
①<口口
口口口口
口口口口 |②---|
②―<口
②口口口
口口口口
③――<
③口口口 |③---|
口口口口
口口∨口
④口|口
口口④口
口口口口 |④---|
42
口①―< |①---|
口口口口
口口①口
口口口口
口②口口
③口口② |--②-|
口口口口 |③---|
口口口口 |----|
43
口口口口 |①---|
口∨∨口 |----|
口||口
口①①口
口口口口
∨口口∨
②口口② |②---|
口②②口
口口③口
口口口口
③口口③
口口口口 |--③-|
44
口①口口 |①---|
口|口口 |----|
口|口口 |----|
口∧口口 |----|
45
口①口口 |①---|
口口口口 |--②-|
口口口口
②口①口
口⑤③口
⑤口口③
④口口⑥ |③-④-|
口④⑥口 |⑤-⑥-|
46
口口口口 |①---|
∨口口口
|口口口
①口口口
④④③口
口②⑤口 |②-③-|
⑧⑥口⑦ |④-⑤⑥|
②⑧⑦口 |⑦-⑧-|
47
口口口口 |①---|
口口口∨
口口口|
口口口①
口③④④
口⑤②口 |②-③-|
⑦口⑥⑧ |④-⑤⑥|
口⑦⑧② |⑦-⑧-|
48
∨口口口 |①---|
|口口口
|口口口
①口口口
口∨口口
口|口口 |②---|
口②口口
②口口口
口口∨口
口口|口
口③③口 |③---|
口口口口
口④口口
④口⑤口
口口④⑤
口口口口 |④-⑤-|
49
①口②口 |①-②-|
口①口② |③-④-|
③口④口
口③口④
⑨口口⑧
⑨⑦⑥⑧
口⑤口口 |⑤-⑥⑦|
⑤口口口 |⑧-⑨-|
50
口口口口 |①---|
口口口∨
口口口|
口口口①
口③④④
口⑤②口 |②-③-|
⑦口⑥⑧ |④-⑤⑥|
口⑦⑧② |⑦-⑧-|
51
口口口口 |①---|
∨口口口
|口口口
①口口口
口口③口
口②口口 |②-③-|
口口口口
②口口口
④④口口
口⑧⑤口
⑧⑥口⑦ |④-⑤⑥|
口口⑦口 |⑦-⑧-|
52
口口>① |①---|
口口口口
口口口口
口口口口
口口口②
口口②口 |②---|
口口∧口
口口口口
口口口口
口∨③口
口③口口 |③---|
口口口口
口口口口
口口口口
口④⑤口
④口口口 |④-⑤-|
53
①⑧口口 |①-②-|
⑧⑦⑧② |③-④-|
③⑧口⑥ |⑤-⑥⑦|
口⑤口④ |⑧---|
54
口口口口 |①---|
∨口口口
|口口口
①口口口
④④③口
口②⑤口 |②-③-|
⑧⑥口⑦ |④-⑤⑥|
②⑧⑦口 |⑦-⑧-|
55
口口口口 |①---|
口口口∨
口口口|
口口口①
口③④④
口⑤②口 |②-③-|
⑦口⑥⑧ |④-⑤⑥|
口⑦⑧② |⑦-⑧-|
56
口口口口 |①---|
>―①口
口口口口
口口口口
口口∨口
口口②口 |②---|
口口②口
口口口口
口口口口
口口口口
口③③< |③---|
口口口口
口口口口
口口口口
⑤④口口
口口④口 |④-⑤-|
57
口③③① |①-②-|
口④②④ |③-④-|
口口口口
口口口口
⑨口口⑥
⑦口口口
⑤⑤口⑧ |⑤-⑥⑦|
⑤⑤口口 |⑧-⑨-|
58
口口口口 |①---|
口口口∨
口口口|
口口口①
口③④④
口⑤②口 |②-③-|
⑦口⑥⑧ |④-⑤⑥|
口⑦⑧② |⑦-⑧-|
59
口口口口 |①---|
∨口口口
|口口口
①口口口
口口③口
口②口口 |②-③-|
口口口口
②口口口
④④口口
口⑧⑤口
⑧⑥口⑦ |④-⑤⑥|
口口⑦口 |⑦-⑧-|
60
口口∨口 |①---|
口口|口
口口①口
口口口口
口口口口
口口口口 |②---|
口②②<
口口口口
口口口口
口③口口
口③口口 |③---|
口∧口口
口口口口
口④④口
⑤口口口
口口口口 |④-⑤-|
61
口②①口 |①-②-|
②⑤⑤① |③-④-|
口④③口 |⑤---|
④⑤⑤③ |----|
62
①①①① |①---|
口口口口 |----|
口①①口 |----|
口口口口 |----|
不確定度: 0