Daydream cafe [2]
Petit Rabbit’s
ADVANCED
Level: 7
BPM: 150
Notes: 391
1
口口口口 |----|
口口③口 |----|
口②口口 |--①-|
口口①口 |②-③-|
2
①―<口 |①---|
口口口口
口口口口
口口口口
②口口口
口>―② |②---|
口口口口
口口口口
口③④口
口口口③
⑤口口⑤ |③-④-|
口口口口 |--⑤-|
3
口⑦口口 |--①-|
口①⑥口 |②-③-|
口⑤②口 |④-⑤-|
口③④口 |⑥-⑦-|
4
口口①① |①---|
口口口口 |②---|
口口口口
②②口口
④口口④
③口口③
③口口③ |③---|
口口口口 |--④-|
5
口口口口 |--①-|
口①口口 |②-③-|
口⑤②口 |④-⑤-|
口③④口 |----|
6
①①②② |①---|
口口口口 |②---|
口③④口 |③-④-|
⑤口口⑤ |--⑤-|
7
口④⑤口 |--①-|
口口③口 |②-③-|
口②口口 |----|
口口①口 |④-⑤-|
8
①口口② |①-②-|
③口口④ |③-④-|
⑤口口⑥ |⑤-⑥-|
⑦>―⑧ |⑦-⑧-|
9
口口口口 |--①-|
③口口口 |②-③-|
口①②口
口口口①
口④⑤口
口∨口⑥
口|口口 |④-⑤-|
口⑦口口 |⑥-⑦-|
10
口口口口 |①---|
口口①口 |②---|
口口②口 |③---|
口口③④ |④---|
11
口口④③ |①---|
口口口② |②---|
⑤口口① |③---|
口④口口 |④-⑤-|
12
口口口口 |--①-|
口①⑦口 |②-③-|
口⑥②口 |④-⑤-|
口④⑤③ |⑥-⑦-|
13
①①口口 |①---|
口口口② |②-③-|
口⑤⑤④ |--④-|
③③口口 |--⑤-|
14
⑦②⑤口 |--①-|
①⑥③④ |②-③-|
口口口口 |④-⑤-|
口口口口 |⑥-⑦-|
15
口口口① |①-②-|
②口口口 |③-④-|
口口口③
口④④口
⑥口口⑥
口口口口
口⑤⑤口 |--⑤-|
口口口口 |--⑥-|
16
口①口口 |--①-|
口口②口 |②-③-|
③⑦⑥口 |④-⑤-|
口⑤④口 |⑥-⑦-|
17
口口口口 |①---|
口>―①
口口口口
口口口口
②―<口
口口口② |--②-|
口口口口
口口口口
④口⑤口
口口④口
口口③口 |--③-|
口口口口 |④-⑤-|
18
⑦口口① |①-②-|
口②口口 |③-④-|
口⑥口③ |⑤-⑥-|
口④⑤口 |--⑦-|
19
口④⑤① |--①-|
⑥口②⑦ |②-③-|
口③口口 |④-⑤-|
口口口口 |⑥-⑦-|
20
口口口口 |①---|
口口口口 |----|
口口口口
①―<口
口口口口
口口③③
口口口口 |----|
②口口口 |②-③-|
21
口口口口 |--①-|
①①口⑥ |--②-|
口③②⑤ |③-④-|
口口口④ |⑤-⑥-|
22
口①④口 |①-②-|
口③②口 |③-④-|
⑤口口⑥ |⑤-⑥-|
口⑦⑦口 |--⑦-|
23
⑦口口⑥ |--①-|
⑤口①口 |②-③-|
口②口④ |④-⑤-|
③口口口 |⑥-⑦-|
24
口口∨口 |①---|
口口|口
口口①口
口口口口
口∨口口
口|口口 |②---|
口②②口
口口口口
口口口③
口口口⑤
口③口⑤ |③---|
④口口口 |④-⑤-|
25
口口口口 |--①-|
①③②口 |--②-|
①口口口 |③---|
口口口口 |----|
26
⑤⑥⑦⑧ |①-②-|
口口口口 |③-④-|
口口口口 |⑤-⑥-|
④③②① |⑦-⑧-|
27
口口口口 |①-②-|
口①④口 |③-④-|
口③②口 |⑤-⑥-|
⑤⑥⑦口 |⑦---|
28
口口口口 |--①-|
③⑤⑤① |②---|
口④②口 |③-④-|
口口口口 |--⑤-|
29
①口口② |--①-|
口口口口 |②-③-|
③口口口
口口口口
⑦口口口
口⑤⑥口
口口口④ |④-⑤-|
口口口口 |⑥-⑦-|
30
口①②③ |①-②-|
④口⑥⑥ |③-④-|
⑦口口口 |⑤---|
口口⑤⑤ |⑥-⑦-|
31
⑥口口口 |①-②-|
口⑦口口 |③-④-|
口①②③ |⑤---|
口④⑤口 |⑥-⑦-|
32
口口∨口 |①---|
口口|口 |②---|
②口①口
口口口口
口口口口
口口口口
口口⑤口 |③---|
③④口口 |④-⑤-|
33
口口口口 |--①-|
口②①口 |②-③-|
口口口③
口口口口
口口口⑦
口口口|
口⑥口| |④-⑤-|
口④⑤∧ |⑥-⑦-|
34
口口口口 |----|
口口口口 |①---|
口口口口 |②---|
口①②③ |③---|
35
口口口⑤ |①---|
口口口口 |②---|
①②③④ |③---|
口口口口 |④-⑤-|
36
⑤⑤口口 |①---|
①②③④ |②---|
口口口口 |③---|
口口口口 |④-⑤-|
37
口口口口 |--①-|
③③⑥口 |②-③-|
口⑤②② |--④-|
①①④口 |⑤-⑥-|
38
①―<口 |①---|
口口口口
口口口口
口口口口
②口口口
口>―② |②---|
口口口口
口口口口
口③④口
口口口③
⑤口口⑤ |③-④-|
口口口口 |--⑤-|
39
口⑦口口 |--①-|
口①⑥口 |②-③-|
口⑤②口 |④-⑤-|
口③④口 |⑥-⑦-|
40
口口①① |①---|
口口口口 |②---|
口口口口
②②口口
④口口④
③口口③
③口口③ |③---|
口口口口 |--④-|
41
口口口口 |--①-|
口①口口 |②-③-|
口⑤②口 |④-⑤-|
口③④口 |----|
42
①①②② |①---|
口口口口 |②---|
口③④口 |③-④-|
⑤口口⑤ |--⑤-|
43
口④⑤口 |--①-|
口口③口 |②-③-|
口②口口 |----|
口口①口 |④-⑤-|
44
①口口② |①-②-|
③口口④ |③-④-|
⑤口口⑥ |⑤-⑥-|
⑦>―⑧ |⑦-⑧-|
45
口口口口 |--①-|
口③⑥口 |②-③-|
②⑤口口 |--④-|
口①④① |⑤-⑥-|
46
①―<口 |①---|
口口口口
口口口口
口口口口
②口口口
口>―② |②---|
口口口口
口口口口
口③④口
口口口③
⑤口口⑤ |③-④-|
口口口口 |--⑤-|
47
口⑦口口 |--①-|
口①⑥口 |②-③-|
口⑤②口 |④-⑤-|
口③④口 |⑥-⑦-|
48
口口①① |①---|
口口口口 |②---|
口口口口
②②口口
④口口④
③口口③
③口口③ |③---|
口口口口 |--④-|
49
口口口口 |--①-|
口①口口 |②-③-|
口⑤②口 |④-⑤-|
口③④口 |----|
50
①①②② |①---|
口口口口 |②---|
口③④口 |③-④-|
⑤口口⑤ |--⑤-|
51
口④⑤口 |--①-|
口口③口 |②-③-|
口②口口 |----|
口口①口 |④-⑤-|
52
①口口② |①-②-|
③口口④ |③-④-|
⑤口口⑥ |⑤-⑥-|
⑦>―⑧ |⑦-⑧-|
53
⑦⑦口口 |--①-|
口⑤⑥口 |②-③-|
口③④口 |④-⑤-|
口①②① |⑥-⑦-|
54
⑥⑥⑦⑦ |--①-|
口口口③ |②-③-|
②④口① |④-⑤-|
②口⑤① |⑥-⑦-|
55
口口口口 |①---|
③口口③ |--②-|
口②②口 |----|
①口口① |③---|
56
③③③③ |--①-|
口口口口 |②-③-|
口②②口 |----|
口①①口 |----|
不確定度: 0