僕は空気が嫁ない
cosMo@暴走P
EXTREME
Level: 10
BPM: 192
Notes: 845
1
①口口口 |----|
口口口③ |----|
口②口口 |--①-|
口口口口 |②-③-|
2
口③⑤口 |①-②-|
③口②口 |③-④-|
⑥口口④ |--⑤-|
口①④⑦ |⑥-⑦-|
3
⑤口口③ |①-②-|
口口③① |③-④-|
口④口⑦ |--⑤-|
④②⑥口 |⑥-⑦-|
4
口口②口 |①-②-|
⑧①⑤口 |③-④-|
③⑥口口 |⑤-⑥-|
口④口⑦ |⑦-⑧-|
5
口③口① |①-②-|
口③口① |③-④-|
⑤⑦⑥口 |--⑤-|
④口②口 |⑥-⑦-|
6
口②①口 |①-②-|
②⑥口① |--③-|
⑤口口口 |④---|
④③③④ |--⑤⑥|
7
②口①③ |①-②-|
口口⑤口 |③-④-|
⑦口口⑥ |-⑤⑥-|
④⑦口④ |--⑦-|
8
口③②口 |①-②-|
③①④② |--③-|
口④①⑤ |④-⑤-|
⑥口⑤⑥ |--⑥-|
9
⑥口①⑦ |①②③④|
口④口③ |⑤⑥⑦⑧|
②口⑤口
口⑧口口
口⑭口口
⑩口⑨口
⑯⑫口⑬ |⑨⑩⑪⑫|
口口⑪⑮ |⑬⑭⑮⑯|
10
④口①口 |①-②-|
口②③① |--③-|
口口②口 |----|
口口口口 |④---|
11
⑦⑤③① |①-②-|
②④⑥⑧ |③-④-|
口口口口 |⑤-⑥-|
①③⑤⑦ |⑦-⑧-|
12
口口口口 |①-②-|
②④⑥⑧ |③-④-|
⑤口口① |⑤-⑥-|
①③⑤⑦ |⑦-⑧-|
13
⑤口口① |①-②-|
②④⑥口 |③-④-|
⑩⑨⑧⑦ |⑤-⑥-|
①③⑤⑦ |⑦⑧⑨⑩|
14
口①①① |①---|
口③⑤⑦ |②-③-|
口口口口 |④-⑤-|
口②④⑥ |⑥-⑦-|
15
口口口口 |①-②-|
②④⑥⑧ |③-④-|
③⑤⑦口 |⑤-⑥-|
①③⑤⑦ |⑦-⑧-|
16
口④口① |①-②-|
②③⑥⑦ |③-④-|
口⑦⑧口 |⑤-⑥-|
①③⑤⑦ |⑦-⑧-|
17
⑥⑤④① |①-②-|
②③口口 |③-④-|
⑩⑨⑧⑦ |--⑤⑥|
①④口口 |⑦⑧⑨⑩|
18
⑦口④① |①-②-|
②④⑥⑧ |③-④-|
口口口口 |⑤-⑥-|
①③⑤⑦ |⑦-⑧-|
19
⑦⑤③① |①-②-|
②④⑥⑧ |③-④-|
口口口口 |⑤-⑥-|
①③⑤⑦ |⑦-⑧-|
20
口口口口 |①---|
①③④⑥ |②-③-|
④口口① |④---|
①②④⑤ |⑤-⑥-|
21
③口口① |①---|
①②③口 |②---|
⑦⑥⑤④ |③---|
①②③④ |④⑤⑥⑦|
22
口①①① |①---|
口口口口 |----|
口口口口 |②---|
②②②口 |----|
23
口①①① |①---|
口口口② |②---|
口口口③ |③---|
口口口④ |④---|
24
①口③口 |①-②-|
口⑤⑤口 |③-④-|
口②口④ |--⑤-|
⑥口口口 |--⑥-|
25
口口②① |①-②-|
口口⑤⑥ |③-④-|
③④口口 |--⑤-|
口口⑤⑥ |⑥---|
26
①口口口 |①---|
口⑤口口 |②-③-|
口口口口 |④---|
②③④口 |--⑤-|
27
④口口① |①-②-|
口口口⑥ |③-④-|
口口⑥⑤ |----|
②口⑤③ |⑤-⑥-|
28
③口口① |①---|
口③①口 |②-③-|
②口口口
口②口口
口口口⑥
⑤口⑥口
口⑤口④ |--④-|
口口④口 |⑤-⑥-|
29
②②②② |----|
口口口口 |----|
口口口口 |①---|
①①①① |②---|
30
口口口口 |①---|
①口①口 |----|
口①口① |②---|
口③②口 |③---|
31
口口口① |①---②-|
②④口口 |--③---|
口⑥口③ |④---|
口口⑤口 |⑤-⑥-|
32
口口口⑤ |①--②|
口④①口 |--③-|
口口口口 |--④-|
③口口② |--⑤-|
33
①②③口 |①-②-|
口口口口 |③-④-|
⑧口口⑦ |----|
⑥④④⑤ |⑤⑥⑦⑧|
34
②口口① |①---|
口③①⑥ |②-③-|
口⑤④口 |④---|
⑤口口口 |⑤-⑥-|
35
④②①口 |①-②-|
口口口口 |③-④-|
口⑦⑤③ |⑤---|
⑥口③⑤ |⑥-⑦-|
36
②③口口 |①---|
⑦口①口 |②-③-|
⑥口口④ |④-⑤-|
⑤口④口 |⑥-⑦-|
37
④口①③ |①---|
口口②① |②---|
口②口口 |③---|
③口口④ |④---|
38
④②①③ |①---|
①口口口 |②---|
②③④① |③---|
口①口口 |④---|
39
口口口口 |①---②-|
②③④① |--③---|
口口⑥⑤ |④---|
②③④① |⑤-⑥-|
40
①①③③ |①---|
口④④口 |②-③-|
口②口口 |--④-|
⑤口口⑤ |⑤---|
41
①②口⑤ |--①-|
口口口口 |②-③-|
口口口④ |--④-|
口③③口 |⑤---|
42
②口口④ |①---|
口①③口 |②---|
口③①口 |③---|
③口口① |④---|
43
口②①口 |①---|
②口口① |②---|
口④③口 |③---|
④口口③ |④---|
44
④④③③ |①---|
口口口口 |②---|
②口口① |③---④-|
⑤②①⑤ |--⑤---|
45
口口口口 |①---|
口①①口 |----|
口④③② |--②-|
口口口口 |③-④-|
46
口③①⑤ |①---|
③口⑤① |②-③-|
口⑤口口 |--④-|
⑤②④口 |--⑤-|
47
①口口口 |--①-|
②①口② |②---|
②口①② |----|
口③③① |③---|
48
③①①③ |①---|
口口口口 |--②-|
口口口口 |----|
②口口② |③---|
49
口口口口 |①-②-|
④口口③ |③-④-|
口⑤⑤口 |--⑤-|
口②①口 |----|
50
①①①① |①-②-|
口②口⑧ |③-④-|
⑦口⑧⑥ |⑤-⑥-|
④⑦③⑤ |⑦-⑧-|
51
①口③口 |①-②-|
口①口口 |③-④-|
⑥⑦⑧⑤ |⑤-⑥-|
口口②④ |⑦-⑧-|
52
③⑦⑤① |①-②-|
④⑧⑥② |③-④-|
口口口口 |⑤-⑥-|
①⑤⑦③ |⑦-⑧-|
53
⑧口⑧⑦ |①-②-|
口口口⑥ |③-④-|
②④③① |⑤-⑥-|
口⑤口⑥ |⑦-⑧-|
54
口口⑧⑦ |①---②-|
②⑤②口 |--③---|
③口③口 |④-⑤-|
①④①⑥ |⑥-⑦⑧|
55
④①口口 |①-②-|
④口⑤口 |③-④-|
⑦②口⑥ |-⑤⑥-|
口⑦③口 |--⑦-|
56
口③②口 |①-②-|
③①④② |--③-|
口④①⑤ |④-⑤-|
口⑥⑤口 |--⑥-|
57
④口口④ |①-②-|
口⑥⑤① |③-④-|
②⑧⑦口 |--⑤⑥|
③⑩⑨③ |⑦⑧⑨⑩|
58
口②①③ |①-②-|
②口口① |③-④-|
口⑦口⑥ |⑤-⑥-|
④口⑧⑤ |⑦-⑧-|
59
①⑤④② |①-②-|
口①②口 |③-④-|
⑥⑦⑧口 |⑤-⑥-|
口③口口 |⑦-⑧-|
60
③⑦⑤① |①-②-|
④⑧⑥② |③-④-|
口口口口 |⑤-⑥-|
①⑤⑦③ |⑦-⑧-|
61
④口口① |①-②-|
④⑩⑨① |③-④-|
②⑧⑦③ |--⑤⑥|
②⑥⑤③ |⑦⑧⑨⑩|
62
口④①口 |①---②-|
④口口① |--③---|
口口⑤口 |④---|
②口口③ |--⑤-|
63
③口口① |①-②-|
口口⑤口 |③-④-|
⑦②口⑥ |-⑤⑥-|
④⑦口④ |--⑦-|
64
口③②口 |①-②-|
③①④② |--③-|
口④①⑤ |④-⑤-|
⑥口⑤⑥ |--⑥-|
65
⑥口①⑦ |①②③④|
口④口③ |⑤⑥⑦⑧|
②口⑤口
口⑧口口
口⑭口口
⑩口⑨口
⑯⑫口⑬ |⑨⑩⑪⑫|
口口⑪⑮ |⑬⑭⑮⑯|
66
④口①口 |①-②-|
口②③① |--③-|
口口②口 |----|
口口口口 |④---|
67
⑦⑤③① |①-②-|
②④⑥⑧ |③-④-|
口口口口 |⑤-⑥-|
①③⑤⑦ |⑦-⑧-|
68
口口口口 |①-②-|
②④⑥⑧ |③-④-|
⑤口口① |⑤-⑥-|
①③⑤⑦ |⑦-⑧-|
69
⑤口口① |①-②-|
②④⑥口 |③-④-|
⑩⑨⑧⑦ |⑤-⑥-|
①③⑤⑦ |⑦⑧⑨⑩|
70
口①①① |①---|
口③⑤⑦ |②-③-|
口口口口 |④-⑤-|
口②④⑥ |⑥-⑦-|
71
口口口口 |①-②-|
②④⑥⑧ |③-④-|
③⑤⑦口 |⑤-⑥-|
①③⑤⑦ |⑦-⑧-|
72
口④口① |①-②-|
②③⑥⑦ |③-④-|
口⑦⑧口 |⑤-⑥-|
①③⑤⑦ |⑦-⑧-|
73
⑥⑤④① |①-②-|
②③口口 |③-④-|
⑩⑨⑧⑦ |--⑤⑥|
①④口口 |⑦⑧⑨⑩|
74
⑦口④① |①-②-|
②④⑥⑧ |③-④-|
口口口口 |⑤-⑥-|
①③⑤⑦ |⑦-⑧-|
75
⑦⑤③① |①-②-|
②④⑥⑧ |③-④-|
口口口口 |⑤-⑥-|
①③⑤⑦ |⑦-⑧-|
76
口口口口 |①---|
①③④⑥ |②-③-|
④口口① |④---|
①②④⑤ |⑤-⑥-|
77
③口口① |①---|
①②③口 |②---|
⑦⑥⑤④ |③---|
①②③④ |④⑤⑥⑦|
78
口①①① |①---|
口口口口 |----|
口口口口 |②---|
②②②口 |----|
79
口①①① |①---|
口口口② |②---|
⑤口口③ |③---|
口⑤口④ |④-⑤-|
80
口③②口 |①-②-|
③①④② |--③-|
口④①⑤ |④-⑤-|
⑦口⑤⑥ |⑥-⑦-|
81
⑥口①⑦ |①②③④|
口④口③ |⑤⑥⑦⑧|
②口⑤口
口⑧口口
口⑭口口
⑩口⑨口
⑯⑫口⑬ |⑨⑩⑪⑫|
口口⑪⑮ |⑬⑭⑮⑯|
82
口口①口 |①-②-|
口②口① |----|
口口②口 |----|
口口口口 |----|
83
口④⑤口 |①-②-|
③⑥口口 |③-④-|
口②⑦口 |⑤-⑥-|
①口口口 |⑦---|
84
口④⑧口 |①-②-|
③口口⑦ |③-④-|
口②⑥口 |⑤-⑥-|
①口口⑤ |⑦-⑧-|
85
口④⑧口 |①-②-|
③口口⑦ |③-④-|
口②⑥口 |⑤-⑥-|
①口口⑤ |⑦-⑧-|
86
⑦⑨口④ |①-②-|
口⑤口口 |③-④⑤|
⑧口口⑥ |⑥-⑦-|
①②③口 |⑧-⑨-|
87
口口①口 |--①-|
口②口口 |--②-|
⑩⑤⑧③ |③④⑤⑥|
⑥⑨④⑦ |⑦⑧⑨⑩|
88
口③②口 |①-②-|
④⑦口① |③-④-|
口⑥口口 |--⑤-|
口口⑤口 |⑥-⑦-|
89
④口①④ |①--②|
⑤口②⑤ |--③-|
⑥口③⑥ |--④-|
口口口口 |⑤-⑥-|
不確定度: 0