Hunny Bunny
U1 overground

EXTREME

Level: 9
BPM: 160
Notes: 741

1
口口口口 |----|
口口口口 |----|
口口口口 |----|
口口口口 |----|
2
口口口口 |①---|
|----|
|----|
口口口口 |----|
3
口口口口 |----|
口口口口 |----|
口口口口 |----|
口口口口 |----|
4
口口口口 |----|
口口口口 |----|
口口口口 |----|
口口口口 |----|
5
口口口口 |----|
口口口口 |----|
口口口口 |----|
口口口口 |----|
6
口口口口 |①---|
①口口 |②---|
口②口 |③---|
口④③口 |④---|
7
口口口口 |①---|
口口口② |②---|
口口①口
口口口口

口口口口
③口口口
③口④口 |③---|
口口④口 |④---|
8
⑥⑩⑨⑤ |①②③④|
⑭②①⑬ |⑤⑥⑦⑧|
⑧⑯⑮⑦ |⑨⑩⑪⑫|
④⑫⑪③ |⑬⑭⑮⑯|
9
②⑩⑨① |①②③④|
⑭⑥⑤⑬ |⑤⑥⑦⑧|
⑧⑯⑮⑦ |⑨⑩⑪⑫|
④⑫⑪③ |⑬⑭⑮⑯|
10
①④口② |①---|
口③③口 |②---|
口口口口 |③---|
①口④② |④---|
11
口口①口 |①---|
口口口口 |②---|
口②②口
口①口口

口③⑥口
③口口⑥
⑤口口④ |③-④-|
口⑤④口 |⑤-⑥-|
12
①⑥口④ |①②③-|
口⑤⑤口 |④---|
口②③口 |⑤---|
①口⑥④ |⑥---|
13
口口①口 |①-②-|
口④口口 |③-④-|
口②③口
口①口口

口⑥⑧口
⑥口口⑧
口口口口 |⑤⑥--|
口⑦⑤口 |⑦⑧--|
14
①④口② |①---|
口③③口 |②---|
口口口口 |③---|
①口④② |④---|
15
口口①口 |①---|
口口口口 |②---|
口②②口
口①口口

口③⑥口
③口口⑥
⑤口口④ |③-④-|
口⑤④口 |⑤-⑥-|
16
②⑫⑪① |①②③④|
⑯⑥⑤⑮ |⑤⑥⑦⑧|
⑩④③⑨ |⑨⑩⑪⑫|
⑧⑭⑬⑦ |⑬⑭⑮⑯|
17
口口口口 |----|
口口口口 |----|
口口口口 |----|
口口口口 |----|
18
口①④口 |①-②-|
③口口② |③-④-|
①口口口
口③口口

口⑦口口
口⑧⑤口
⑦⑤口⑦ |⑤-⑥-|
口口⑥⑤ |⑦-⑧-|
19
①口③① |①---|
①⑤④① |②-③-|
口④⑤口 |--④-|
②③口② |⑤---|
20
口口③口 |①-②-|
②口口① |③-④-|
口口口③
口④①口

口⑤口口
口口⑦⑧
⑤⑦⑤口 |⑤-⑥-|
⑥口口⑦ |⑦-⑧-|
21
①口口② |①-②-|
口①口口 |③-④-|
④口口③
口④口口

口口⑤口
口⑦⑦口
口口⑥口 |⑤-⑥-|
口口口口 |⑦---|
22
②⑤⑤① |①-②-|
④⑥⑥③ |③-④-|
口⑦⑦口 |⑤-⑥-|
④⑧⑧④ |⑦-⑧-|
23
①②口① |----|
②口③口 |①---|
口③口④ |②-③-|
口口④口 |④---|
24
①口④④ |①-②-|
⑦⑤⑧② |③-④-|
①⑦⑥口 |⑤-⑥-|
口③口口 |⑦-⑧-|
25
口口④② |①-②-|
口口口口 |③-④-|
口口口②
①③口口

⑩口口口
⑨⑥口⑫
口⑤⑧⑪ |⑤⑥⑦⑧|
口口⑦口 |⑨⑩⑪⑫|
26
口②④④ |①-②-|
口口①口 |③-④-|
③口口口
口口口①

⑦口口口
口⑦口口
口口口口 |⑤-⑥-|
口⑤⑥⑧ |⑦-⑧-|
27
口⑤口口 |①-②-|
④⑥⑦① |③-④-|
②⑤⑧③ |⑤-⑥-|
②口⑦口 |⑦-⑧-|
28
①口口口 |①-②-|
③口口② |③-④-|
口口口口
口口口④

口口口口
口口⑥⑧
⑤口口口 |⑤-⑥-|
⑦口口口 |⑦-⑧-|
29
口①⑨② |①-②-|
口③⑩⑨ |③-④-|
⑧⑦⑥⑤ |⑤⑥⑦⑧|
口⑩④口 |⑨-⑩-|
30
口②口⑦ |①-②-|
⑧口口⑤ |③-④-|
口⑥口③ |⑤-⑥-|
④口口① |⑦-⑧-|
31
④口口口 |①-②-|
口②口口 |③-④-|
口口③口
口口①口

口⑦⑤口
口⑧⑥口
⑦口口⑤ |⑤-⑥-|
口口口口 |⑦-⑧-|
32
口⑥口⑤ |①-②-|
①口口③ |③-④-|
口④口⑦ |⑤-⑥-|
口②口⑧ |⑦-⑧-|
33
①口口口 |①-②-|
口②③口 |③-④-|
口口口口
④口口口

口⑨口口
⑨⑩口口
⑤⑥⑦⑧ |⑤⑥⑦⑧|
口口⑩口 |⑨-⑩-|
34
口口①③ |①-②-|
口口③① |③-④-|
口④口口
②口口口

口⑤口口
口⑦口⑧
⑤口⑤⑦ |⑤-⑥-|
口⑥⑦口 |⑦-⑧-|
35
①口①③ |①---|
①⑤①④ |②-③-|
口④口⑤ |--④-|
②③口② |⑤---|
36
⑦①口④ |①-②-|
③⑦⑥口 |③-④-|
①⑤②⑦ |⑤-⑥-|
⑧③⑤⑤ |⑦-⑧-|
37
⑤②①口 |①-②-|
口⑦⑦① |③-④-|
⑥③④口 |⑤-⑥-|
口口口④ |⑦---|
38
④⑧口④ |①-②-|
口口⑦口 |③-④-|
④⑥口③ |⑤-⑥-|
①口⑤② |⑦-⑧-|
39
⑤⑤②② |①---|
①口口① |②-③-|
⑥口口③ |④-⑤-|
①④④① |⑥---|
40
口④口① |①-②-|
④口口① |③-④-|
口口③口
②口口口

口口口⑦
口口⑦口
口⑥口口 |⑤-⑥-|
口口⑤⑧ |⑦-⑧-|
41
口④⑦口 |①-②-|
②②⑧⑦ |③-④-|
⑤⑥③口 |⑤-⑥-|
①⑤口口 |⑦-⑧-|
42
②口口② |①-②-|
口口口口 |--③-|
口口口口
①③口①

口④口口
口口口口
口口口口 |--④-|
口口口⑤ |--⑤-|
43
⑥④④口 |①-②-|
口③③⑤ |-③--|
口⑥口口 |④---|
①②⑤口 |⑤-⑥-|
44
口口④口 |①-②-|
口口口口 |--③-|
③口口③ |--④-|
②①⑤② |--⑤-|
45
口⑥口口 |①-②-|
口③③口 |-③--|
④⑤口④ |④---|
①②口口 |⑤-⑥-|
46
⑧⑥④② |①-②-|
⑥⑧②④ |③-④-|
口口口口 |⑤-⑥-|
⑦⑤③① |⑦-⑧-|
47
⑦⑤③① |①-②-|
口口口口 |③-④-|
⑥⑧②④ |⑤-⑥-|
⑧⑥④② |⑦-⑧-|
48
⑧⑥④② |①-②-|
⑥⑧②④ |③-④-|
口口口口 |⑤-⑥-|
⑦⑤③① |⑦-⑧-|
49
口口口口 |----|
口口口口 |----|
口口口口 |----|
口口口口 |----|
50
①③口② |①---|
口口口口 |②---|
口口口口 |----|
①口③② |③---|
51
口口①口 |①---|
口口口口 |----|
口口口口
口①口口

口②⑤口
②口口⑤
④口口③ |②-③-|
口④③口 |④-⑤-|
52
①③口② |①---|
口口口口 |②---|
口口口口 |----|
①口③② |③---|
53
口口①口 |①---|
口口口口 |----|
口口口口
口①口口

口口口口
口口口口
口口口口 |②---|
口③②口 |③---|
54
①④口② |①---|
口③③口 |②---|
口口口口 |③---|
①口④② |④---|
55
⑥口①⑤ |①---|
口口口口 |②---|
口②②口 |③-④-|
④①口③ |⑤-⑥-|
56
⑬⑤①⑨ |①②③④|
⑭⑥②⑩ |⑤⑥⑦⑧|
⑮⑦③⑪ |⑨⑩⑪⑫|
⑯⑧④⑫ |⑬⑭⑮⑯|
57
口①①口 |①---|
口口口口 |----|
口口口口 |----|
口口口口 |----|
58
⑭⑦③① |①-②-|
④⑧⑬口 |③④⑤⑥|
⑫⑨⑤口 |⑦⑧⑨⑩|
⑥⑩⑪② |⑪⑫⑬⑭|
59
⑭⑦③① |①-②-|
④⑧⑬口 |③④⑤⑥|
⑫⑨⑤口 |⑦⑧⑨⑩|
⑥⑩⑪② |⑪⑫⑬⑭|
60
⑭⑦③① |①-②-|
④⑧⑬口 |③④⑤⑥|
⑫⑨⑤口 |⑦⑧⑨⑩|
⑥⑩⑪② |⑪⑫⑬⑭|
61
⑦⑤③① |①-②-|
口口口口 |③-④-|
⑧⑥④② |⑤-⑥-|
口口口口 |⑦-⑧-|
62
⑭⑦③① |①-②-|
④⑧⑬口 |③④⑤⑥|
⑫⑨⑤口 |⑦⑧⑨⑩|
⑥⑩⑪② |⑪⑫⑬⑭|
63
⑦⑤③① |①-②-|
口口口口 |③-④-|
⑧⑥④② |⑤-⑥-|
口口口口 |⑦-⑧-|
64
⑭⑥⑤⑬ |①②③④|
⑩②①⑨ |⑤⑥⑦⑧|
⑯⑧⑦⑮ |⑨⑩⑪⑫|
④⑫⑪③ |⑬⑭⑮⑯|
65
⑭⑥⑤⑬ |①②③④|
⑩②①⑨ |⑤⑥⑦⑧|
⑯⑧⑦⑮ |⑨⑩⑪⑫|
④⑫⑪③ |⑬⑭⑮⑯|
66
⑧口口⑦ |①---|
⑩②①⑨ |②---|
口⑥⑤口 |③④⑤⑥|
②④③① |⑦⑧⑨⑩|
67
⑭⑥⑤⑬ |①②③④|
⑯⑧⑦⑮ |⑤⑥⑦⑧|
④⑫⑪③ |⑨⑩⑪⑫|
②⑩⑨① |⑬⑭⑮⑯|
68
⑧②①⑧ |①---|
口⑥⑤口 |②---|
②④③① |③④⑤⑥|
⑦口口⑦ |⑦-⑧-|
69
口③②口 |①---|
③口⑧② |②-③-|
①⑦⑥① |④⑤⑥⑦|
口⑤④口 |⑧---|
70
⑧⑭⑨④ |①②③④|
⑦⑩⑬③ |⑤⑥⑦⑧|
⑥⑫⑮② |⑨⑩⑪⑫|
⑤⑯⑪① |⑬⑭⑮⑯|
71
④⑫⑬⑦ |①②③④|
⑥⑭⑪③ |⑤⑥⑦⑧|
②⑩⑮⑤ |⑨⑩⑪⑫|
⑧⑯⑨① |⑬⑭⑮⑯|
72
②⑫⑨⑤ |①②③④|
⑧⑭⑪③ |⑤⑥⑦⑧|
④⑥⑮⑬ |⑨⑩⑪⑫|
⑩⑯⑦① |⑬⑭⑮⑯|
73
②⑩⑮⑦ |①②③④|
⑧⑭⑨③ |⑤⑥⑦⑧|
④⑥⑬⑪ |⑨⑩⑪⑫|
⑫⑯⑤① |⑬⑭⑮⑯|
74
口口口口 |①---|
口口口口 |----|
口口口口 |----|
口口口① |----|

不確定度: 0

最終更新:2016年07月27日 16:33