Famous Day
[Alexandros]

EXTREME

Level: 9
BPM: 180
Notes: 560

1
口口口口 |----|
口口口口 |----|
口口口口 |----|
口口口口 |----|
2
口口口③ |①-②-|
口口口② |③---|
口口口① |----|
口口口口 |----|
3
口口口口 |----|
口口口口 |----|
口口口口 |----|
口口口口 |----|
4
③口口口 |①-②-|
②口口口 |③---|
①口口口 |----|
口口口口 |----|
5
口口口口 |----|
口口口口 |----|
口口口口 |----|
口口口口 |----|
6
口口口③ |①-②-|
口口口② |③---|
口口口① |----|
口口口口 |----|
7
口②口口 |①---|
口口口口 |----|
口口①口 |②---|
口口口口 |----|
8
③⑤⑤口 |①-②-|
②口口口 |③---|
①④④口 |--④-|
口口口口 |--⑤-|
9
⑤口口③ |--①-|
④口②口 |②-③-|
口口口① |--④-|
口口口口 |⑤---|
10
口③口口 |①-②-|
口①口② |③-④-|
⑥口⑤④ |--⑤-|
口口⑦口 |⑥-⑦-|
11
口②口③ |--①-|
④口⑦① |②-③-|
⑥口⑤口 |④-⑤-|
口口口口 |⑥-⑦-|
12
口③口口 |①-②-|
口①口② |③-④-|
⑥口⑤④ |--⑤-|
口口⑦口 |⑥-⑦-|
13
口口①② |--①-|
③口⑥口 |--②-|
⑤口④口 |③-④-|
口口口口 |⑤-⑥-|
14
口③口口 |①-②-|
口①口② |③-④-|
⑥口⑤④ |--⑤-|
口口⑦口 |⑥-⑦-|
15
口口口③ |--①-|
④②⑦① |②-③-|
⑥口⑤口 |④-⑤-|
口口口口 |⑥-⑦-|
16
①②③口 |①-②-|
口口⑥口 |③-④-|
口⑦口⑦ |⑤---|
口口⑤④ |⑥-⑦-|
17
口①口① |--①-|
③④⑤口 |--②-|
②口②口 |--③-|
口口口口 |④-⑤-|
18
⑥③口④ |①-②-|
口⑦⑦口 |③-④-|
口口口口 |⑤---|
⑤①口② |⑥-⑦-|
19
口口口⑤ |--①-|
口口口口 |--②-|
②口口② |--③-|
③①①④ |④-⑤-|
20
②①口口 |①---|
①口①口 |--②-|
口①口口
口口口口

口口③口
④③口③
口口③口 |③---|
口口口口 |--④-|
21
口口口⑥ |①---|
口口①⑤ |②-③-|
③①口① |④---|
②口①④ |⑤-⑥-|
22
口②②口 |①---|
口③③口 |②-③-|
口①①口 |----|
口口口口 |----|
23
口①②口 |----|
口③④口 |----|
口⑤⑥口 |①②③④|
口⑦⑧口 |⑤⑥⑦⑧|
24
①口口① |①---|
③⑤⑤③ |②---|
②④④② |③---|
口口口口 |④-⑤-|
25
口①①口 |--①-|
口口口口 |--②-|
口⑤④③ |--③-|
口②②口 |④-⑤-|
26
⑤口口④ |①-②-|
③⑧口② |③-④-|
①口口⑥ |⑤-⑥-|
⑦⑧口口 |⑦-⑧-|
27
口口口⑤ |--①-|
①口口口 |--②-|
②口②口 |--③-|
③口①④ |④-⑤-|
28
②①口口 |①---|
①口①口 |--②-|
口①口口
口口口口

口口③口
④③口③
口口③口 |③---|
口口口口 |--④-|
29
口⑤⑥口 |①-②-|
⑦口④⑧ |③-④-|
口①口③ |⑤-⑥-|
口口②口 |⑦-⑧-|
30
②③口口 |①---|
口口口口 |②-③-|
①口口口 |----|
口口口口 |----|
31
口①②口 |----|
口③④口 |----|
口⑤⑥口 |①②③④|
口⑦⑧口 |⑤⑥⑦⑧|
32
②口口② |①---|
①口口① |----|
①口口① |②---|
口口口口 |----|
33
口口口口 |①---|
口②②口 |----|
口②②口 |②---|
①口口① |----|
34
②口口② |①---|
①口口① |----|
①口口① |②---|
口口口口 |----|
35
⑤④口口 |①---|
⑥③口口 |--②-|
口②口口 |③-④-|
①口口① |⑤-⑥-|
36
口口口口 |①---|
口口口口 |②-③-|
①③口② |④---|
④⑥口⑤ |⑤-⑥-|
37
②口②口 |①---|
口④⑤口 |②---|
①口①口 |③---|
③口③口 |④-⑤-|
38
口③④口 |①-②-|
口口口口 |③-④-|
口①②口 |----|
口口口口 |----|
39
口①②口 |----|
口③④口 |----|
口⑤⑥口 |①②③④|
口⑦⑧口 |⑤⑥⑦⑧|
40
②口口② |①---|
①口口① |----|
①口口① |②---|
口③③口 |--③-|
41
口①①口 |①---|
②口口② |--②-|
③口口③ |③---|
口④④口 |--④-|
42
口①①口 |①---|
②口口② |----|
口口口口 |②---|
③口口③ |--③-|
43
①④⑤① |①---|
口③⑥⑦ |②-③-|
口②②口 |④-⑤-|
口口口口 |⑥-⑦-|
44
口口口口 |①---|
④口口口 |②-③-|
①④⑥③ |④---|
口①⑤② |⑤-⑥-|
45
①口口③ |①---|
口①口② |②-③-|
④口口口 |④---|
口④口口 |----|
46
⑥①口③ |①-②-|
①②③④ |③---|
口③④⑤ |④---|
③④⑤口 |⑤-⑥-|
47
④口①② |①---|
口①②③ |②---|
①②③口 |③---|
②③口④ |④---|
48
口①口② |①---|
①口②口 |②---|
口②口①
②口①口

④口③口
⑤③口口
口口③⑤ |③---|
口③口④ |④-⑤-|
49
口③口③ |①---|
口口口① |②---|
①口口口 |③---|
②④②④ |④---|
50
①口①口 |①---|
②口②口 |----|
口口口口 |②---|
口口口口 |----|
51
口口口口 |①---|
口口③口 |----|
①口①口 |②---|
②口②口 |--③-|
52
口①口① |①---|
口口口口 |----|
口①口①
口口口口

③口口口
口②⑤④
④⑤②口 |②-③-|
口口口③ |④-⑤-|
53
⑤②③④ |①-②-|
①⑥口口 |③-④-|
口口⑥① |⑤---|
④③②⑤ |⑥---|
54
④①②口 |①---|
①口③② |②---|
②③口① |③---|
口②①④ |④---|
55
口①②口 |①-②-|
口⑤口⑤ |③-④-|
⑤口⑤口 |⑤---|
口③④口 |----|
56
口⑤口① |①-②-|
④口②口 |③---|
口③口⑤ |④---|
口口④口 |⑤---|
57
口⑤口口 |①-②-|
⑤④⑤③ |③---|
④⑤④口 |④---|
①④口② |⑤---|
58
①口①口 |①---|
口口口口 |----|
口口口口 |②---|
②口②口 |----|
59
③②口口 |①---|
②①②口 |----|
①②①口 |②---|
口①口口 |--③-|
60
口口①口 |①---|
口①口① |--②-|
口口①口
口口口②

口口口口
口口口口
口⑤⑥口 |③-④-|
口③④口 |⑤-⑥-|
61
②口口② |①---|
①口口① |②---|
④口口④ |③---|
③口口③ |④---|
62
口口口口 |①---|
口①①口 |----|
口①①口 |----|
口口口口 |----|
63
口口口口 |①---|
①口口① |----|
①口口① |----|
口口口口 |----|
64
口口口口 |①---|
口①①口 |----|
口①①口 |----|
口口口口 |----|
65
口口⑧口 |①-②-|
②⑦口④ |③-④-|
①口⑥③ |⑤-⑥-|
口⑤口口 |⑦-⑧-|
66
①②口口 |①-②-|
口口⑦⑧ |③-④-|
③④口口 |⑤-⑥-|
口口⑤⑥ |⑦-⑧-|
67
口口⑦⑧ |①-②-|
③④口口 |③-④-|
口口⑤⑥ |⑤-⑥-|
①②口口 |⑦-⑧-|
68
⑥⑦口口 |①---|
口口③② |②-③-|
④⑤口口 |④-⑤-|
①①①① |⑥-⑦-|
69
口口口口 |①-②-|
②④⑥⑧ |③-④-|
口口口口 |⑤-⑥-|
①③⑤⑦ |⑦-⑧-|
70
①①①① |①-②-|
口口口口 |③-④-|
⑤③②④ |⑤-⑥-|
⑦口⑧⑥ |⑦-⑧-|
71
①①①① |①-②-|
③⑤②④ |③-④-|
口口口口 |⑤-⑥-|
⑦口⑧⑥ |⑦-⑧-|
72
⑤⑦⑥④ |①-②-|
③口②⑧ |③-④-|
①①①① |⑤-⑥-|
口口口口 |⑦-⑧-|
73
⑦口口⑧ |①-②-|
口③⑥口 |③-④-|
①口②口 |⑤-⑥-|
口⑤口④ |⑦-⑧-|
74
口口口口 |①-②-|
口口⑧④ |③-④-|
②⑥⑦③ |⑤-⑥-|
①⑤口口 |⑦-⑧-|
75
①②③④ |①-②-|
⑥口口⑧ |③-④-|
⑤口口⑦ |⑤-⑥-|
口口口口 |⑦-⑧-|
76
口口口口 |①-②-|
口口③口 |③---|
口口②口 |----|
口口①口 |----|
77
口口口口 |----|
口口口口 |----|
口口口口 |----|
口口口口 |----|
78
口⑤口口 |①-②-|
口口口③ |③---|
口口口② |--④-|
口④口① |--⑤-|
79
口口口口 |--①-|
③口口⑥ |②-③-|
②口口⑤ |--④-|
①口口④ |⑤-⑥-|

不確定度: 0

最終更新:2016年07月27日 15:39