DesireDrive
岸田教団&THE明星ロケッツ

EXTREME

Level: 9
BPM: 184
Notes: 790

1
口口口口 |----|
口口口口 |----|
口①②口 |----|
口口口口 |--①②|
2
④口口口 |①---|
⑤①③② |②-③-|
⑥口口口 |④--⑤|
口口口口 |--⑥-|
3
口口口口 |--①-|
口①②口 |②---|
⑤口口⑥ |③-④-|
③口口④ |⑤-⑥-|
4
④①口口 |①---|
⑤口③② |②-③-|
⑥口口口 |④--⑤|
口口口口 |--⑥-|
5
③④口口 |--①-|
口①②口 |②---|
口口口口 |③-④-|
口口⑤⑥ |⑤-⑥-|
6
口口③① |①---|
口口口② |②---|
口口口口 |③---|
口口④口 |--④-|
7
口口口口 |--①-|
口口口③ |②---|
①②④口 |③-④-|
口⑤口口 |⑤---|
8
①口口① |①---|
④⑤⑥口 |②-③-|
口口口口 |④--⑤|
②口口③ |--⑥-|
9
④口口③ |--①-|
⑥口口⑤ |②---|
⑧口②⑦ |③④⑤⑥|
⑩口①⑨ |⑦⑧⑨⑩|
10
口③①⑤ |①-②-|
⑧口口口 |③-④-|
⑥口口口 |⑤-⑥-|
口②④⑦ |⑦-⑧-|
11
⑧③②⑦ |①-②-|
口⑥⑤口 |③-④-|
口⑤⑥④ |⑤-⑥-|
⑦①口⑧ |⑦-⑧-|
12
口③①口 |①-②-|
⑦口口⑤ |③-④-|
②口口口 |⑤-⑥-|
⑥口④⑧ |⑦-⑧-|
13
①口④口 |①-②-|
口口口口 |③-④-|
口口口②
口③口口

⑧口口⑦
口⑥⑤口
口⑤⑥口 |⑤-⑥-|
⑦口口⑧ |⑦-⑧-|
14
⑧①③⑥ |①-②-|
⑤口口口 |③-④-|
口口口② |⑤-⑥-|
口④⑦口 |⑦-⑧-|
15
⑦②口⑧ |①-②-|
口⑤⑥③ |③-④-|
口⑥⑤① |⑤-⑥-|
⑧④口⑦ |⑦-⑧-|
16
口⑤④口 |①-②-|
⑥口口③ |③-④-|
⑦口口② |⑤-⑥-|
口⑧①口 |⑦-⑧-|
17
①口口口 |①---|
③①②口 |--②-|
口③①② |③---|
口口口① |----|
18
①口口① |①---|
口④口口 |----|
口③口口 |②---③-|
口②口口 |--④---|
19
①口口① |①---|
口口④口 |----|
口口③口 |②---③-|
口口②口 |--④---|
20
①②口① |①---|
口口③口 |----|
口④口口 |②---③-|
口口口口 |--④---|
21
①口口① |①---|
口口口口 |----|
口口口口 |②---|
②口口② |----|
22
口口口口 |①---|
口③口口 |----|
②口④口 |②---③-|
口①①口 |--④---|
23
③口口② |①---|
口口口口 |----|
③口口② |②---|
口①①口 |--③---|
24
口口口口 |①---|
口①①口 |②---|
口口口口 |③---|
口②③④ |④---|
25
口口口口 |①---|
口④④口 |②---|
口口②① |③---|
口③③口 |④---|
26
①②②① |①---|
口口⑤口 |②---|
口④口口 |③---④-|
③口口口 |--⑤---|
27
口②②口 |①---|
口口口口 |②---|
口口口口
口①①口

口口口口
口口口③
口口④口 |③---④-|
口⑤口口 |--⑤---|
28
①口口① |①---|
③口口口 |②---|
③④口口 |③---④-|
②口⑤② |--⑤---|
29
①②②① |①---|
口口口口 |②---|
口口口口 |③---|
③④④③ |④---|
30
口②②口 |①---|
①口口① |②---|
口①①口
口口口口

口口口口
口④口口
③口⑤口 |③---④-|
口口口口 |--⑤---|
31
③口口② |①---|
口口口口 |----|
③口口② |②---|
口①①口 |--③---|
32
口③②⑤ |①---|
口①①⑤ |--②-|
口②④口 |--③-|
口口口口 |④-⑤-|
33
①口口口 |--①-|
①口口口 |--②-|
③口口② |--③-|
③口口② |----|
34
口①②④ |①---|
④③①口 |②-③-|
⑥①口④ |④---|
④口①⑤ |⑤-⑥-|
35
②④④口 |①---|
口②口① |②---|
口口①口 |③---|
口③③口 |④---|
36
②口口口 |①---|
①口①口 |----|
口①口① |----|
口口口口 |--②-|
37
口口口口 |①-②-|
口口⑤口 |③-④-|
口④③口 |⑤---|
口②①口 |----|
38
①⑤④口 |①---|
口④⑥① |②-③-|
①口④③ |④---|
②④口① |⑤-⑥-|
39
口口口④ |①---|
③④口② |②---|
①②③口 |③---|
口口①口 |④---|
40
口②②口 |①---|
口口口口 |②---|
口口口口
①口口①

口口口⑤
口④③口
口③④口 |③-④-|
⑤口口口 |--⑤-|
41
口口口口 |--①-|
②口口① |②---|
②口口① |③---|
④③③④ |④---|
42
①口④① |①-②-|
⑤⑦⑦口 |③-④-|
③①①② |⑤-⑥-|
⑦⑥口⑦ |--⑦-|
43
③⑥④② |--①-|
口口⑥口 |②-③-|
口⑥①口 |④-⑤-|
口⑤⑥口 |--⑥-|
44
⑥口口③ |--①-|
②口口⑦ |②-③-|
口口口① |④-⑤-|
④口口⑤ |⑥-⑦-|
45
口口②④ |①---|
②口③口 |②---|
①③口② |③-④-|
④②口口 |----|
46
①①口口 |①-②-|
口③口口 |③-④-|
④口②口
口口①①

⑦口⑦口
口口口⑤
口口口口 |⑤-⑥-|
口⑥口口 |--⑦-|
47
口③口口 |--①-|
③⑤④口 |②-③-|
口①②⑥ |--④-|
口口⑥口 |⑤-⑥-|
48
口口口口 |----|
口口④口 |①---|
①②③口 |②---|
口口口口 |③-④-|
49
口口口① |①---|
口口⑥② |②---|
口⑤④③ |③-④⑤|
口口口口 |⑥---|
50
口口口口 |①-②-|
②⑤⑧口 |③-④-|
③⑥口口 |⑤-⑥-|
①④⑦口 |⑦-⑧-|
51
④⑤⑥⑦ |①-②-|
口口口⑧ |③-④-|
口口口③ |⑤-⑥-|
②口口① |⑦-⑧-|
52
口口口口 |①-②-|
②⑤口口 |③-④-|
③⑥⑧口 |⑤-⑥-|
①④⑦口 |⑦-⑧-|
53
④⑤口口 |①-②-|
⑫⑥口口 |③-④-|
⑩⑦⑪③ |⑤⑥⑦⑧|
②⑧⑨① |⑨⑩⑪⑫|
54
③③①口 |①---|
口口口① |②-③-|
口口口④ |--④-|
②口⑤口 |⑤---|
55
口⑥⑤④ |①---|
口②③口 |②-③-|
①口①口 |--④-|
口口口口 |⑤-⑥-|
56
④口口口 |①---|
口口口③ |②-③-|
②⑤口③ |--④-|
口①①口 |⑤---|
57
⑦⑥⑥⑦ |①-②-|
④②②④ |③-④-|
⑤⑦⑦⑤ |⑤-⑥-|
③①①③ |--⑦-|
58
⑦口口⑦ |--①-|
口②③口 |②-③-|
口⑦⑦口 |④-⑤-|
④⑥⑤① |⑥-⑦-|
59
⑦口口⑦ |--①-|
②口口① |②-③-|
④⑦⑦③ |④-⑤-|
⑥口口⑤ |⑥-⑦-|
60
口①⑫⑫ |--①-|
⑦③②⑥ |②③④⑤|
⑤⑪⑩④ |⑥⑦⑧⑨|
口⑨⑧口 |⑩⑪⑫-|
61
①①口口 |---①|
口口口口 |----|
口口口口 |----|
②口口② |--②-|
62
⑥口⑦口 |-①--|
口②③⑦ |②-③④|
口④①口 |⑤-⑥-|
口口⑤口 |-⑦--|
63
③①口② |--①-|
①口口口 |--②-|
⑦⑧口口 |③-④⑤|
口⑥⑤④ |⑥-⑦⑧|
64
口口口口 |①---|
②口⑤② |②---|
口④①口 |--③-|
口口③口 |④-⑤-|
65
①①口口 |①---②-|
口口口口 |--③---|
③口口②
口口口口

⑦口口口
口口口④
口口口口 |④-⑤-|
⑤口口⑥ |⑥-⑦-|
66
口①口④ |①---|
口口口口 |②-③-|
口③口⑥ |④---|
口②口⑤ |⑤-⑥-|
67
口口口口 |①---|
①口②口 |②---|
口口口口 |③---|
③口④口 |④---|
68
②口口口 |①---|
口口口口 |----|
口①口① |----|
口口口口 |--②-|
69
⑧⑦⑥⑤ |①-②-|
⑫⑪⑩⑨ |③-④-|
口④③口 |⑤⑥⑦⑧|
口②①口 |⑨⑩⑪⑫|
70
⑤⑥口④ |①---|
口口口口 |②-③-|
口口口口 |④---|
②③口① |⑤-⑥-|
71
口口口④ |①---|
③④口② |②---|
①②③口 |③---|
口口①口 |④---|
72
口②②口 |①---|
口口口口 |②---|
口口口口
①口口①

口口口⑤
口④③口
口③④口 |③-④-|
⑤口口口 |--⑤-|
73
口口口口 |--①-|
②口口① |②---|
②口口① |③---|
④③③④ |④---|
74
①口④口 |①-②-|
⑤⑦⑦口 |③-④-|
口③③② |⑤-⑥-|
⑦⑥口⑦ |--⑦-|
75
③⑥④② |--①-|
口口⑥口 |②-③-|
口⑥①口 |④-⑤-|
口⑤⑥口 |--⑥-|
76
⑥口口③ |--①-|
②口口⑦ |②-③-|
口口口① |④-⑤-|
④口口⑤ |⑥-⑦-|
77
口口②④ |①---|
②口③口 |②---|
①③口② |③-④-|
④②口口 |----|
78
①①口口 |①-②-|
口③口口 |③-④-|
④口②口
口口①①

⑦口⑦口
口口口⑤
口口口口 |⑤-⑥-|
口⑥口口 |--⑦-|
79
口③口口 |--①-|
③⑤④口 |②-③-|
口①②⑥ |--④-|
口口⑥口 |⑤-⑥-|
80
口口④③ |--①-|
口⑤口口 |②---|
⑥②①口 |③-④-|
②口口① |⑤-⑥-|
81
口⑫⑪口 |①-②-|
④⑧⑦② |③-④-|
⑩口口⑨ |⑤⑥⑦⑧|
③⑥⑤① |⑨⑩⑪⑫|
82
②口口② |①---|
口口口口 |②-③-|
口①①口
口口口③

口口口口
⑥④口⑥
口⑥⑥⑤ |④-⑤-|
口口⑤口 |--⑥-|
83
③⑥③口 |--①-|
口⑥⑤口 |②-③-|
①口⑥⑤ |④-⑤-|
④口⑥② |--⑥-|
84
口口⑦① |--①-|
③口④口 |②-③-|
口口口口 |④-⑤-|
⑤②口⑥ |⑥-⑦-|
85
口②口口 |①---|
②④③口 |②---|
④①口③ |③-④-|
口口①口 |----|
86
①②①② |①-②-|
⑦口口口 |③-④-|
⑦⑤④⑦ |⑤-⑥-|
口⑥③⑦ |--⑦-|
87
④口③⑥ |--①-|
口⑥⑥③ |②-③-|
⑥口⑤口 |--④-|
②口①口 |⑤-⑥-|
88
口口口口 |----|
②口口① |①-②-|
⑥口口⑤ |③-④-|
④口口③ |⑤-⑥-|
89
①口口口 |----|
②口⑤口 |①---|
口④③口 |②-③④|
口口口口 |⑤---|
90
口③①⑤ |①-②-|
⑧口口口 |③-④-|
⑥口口口 |⑤-⑥-|
口②④⑦ |⑦-⑧-|
91
⑧③②⑦ |①-②-|
口⑥⑤口 |③-④-|
口⑤⑥④ |⑤-⑥-|
⑦①口⑧ |⑦-⑧-|
92
口③①口 |①-②-|
⑦口口⑤ |③-④-|
②口口口 |⑤-⑥-|
⑥口④⑧ |⑦-⑧-|
93
①口④口 |①-②-|
口口口口 |③-④-|
口口口②
口③口口

⑧口口⑦
口⑥⑤口
口⑤⑥口 |⑤-⑥-|
⑦口口⑧ |⑦-⑧-|
94
⑧①③⑥ |①-②-|
⑤口口口 |③-④-|
口口口② |⑤-⑥-|
口④⑦口 |⑦-⑧-|
95
⑦②口⑧ |①-②-|
口⑤⑥③ |③-④-|
口⑥⑤① |⑤-⑥-|
⑧④口⑦ |⑦-⑧-|
96
口⑤④口 |①-②-|
⑥口口③ |③-④-|
⑦口口② |⑤-⑥-|
口⑧①口 |⑦-⑧-|
97
①口口口 |①---|
口①②口 |--②-|
口口①②
口口口①

口⑧口⑤
④口口⑦
口⑥⑨口 |③④⑤⑥|
⑩口③口 |⑦⑧⑨⑩|
98
口口口口 |①---|
口口口口 |----|
口口口口 |----|
口口口① |----|

不確定度: 0

最終更新:2016年07月27日 15:38