完全無欠の無重力ダイブ
日向美ビタースイーツ♪

BASIC

Level: 2
BPM: 122
Notes: 201

1
口口口口 |----|
口口口口 |----|
口口口口 |----|
口口口口 |----|
2
①②口口 |①---|
口口口口 |----|
口口口口 |②---|
口口口口 |----|
3
口口②① |①---|
口口口口 |----|
口口口口 |②---|
口口口口 |----|
4
口口口口 |①---|
①②口口 |----|
口口口口 |②---|
口口口口 |----|
5
口口口口 |①---|
口口②① |----|
口口口口 |②---|
口口口口 |----|
6
口③口口 |①---|
口②口口 |②---|
口①口口 |③---|
口口口口 |----|
7
口口③口 |①---|
口口②口 |②---|
口口①口 |③---|
口口口口 |----|
8
③口口口 |①---|
②口口口 |②---|
①口口口 |③---|
口口口口 |----|
9
口口口③ |①---|
口口口② |②---|
口口口① |③---|
口口口口 |----|
10
口③口口 |①---|
口②口口 |②---|
口①口口 |③---|
口口口口 |----|
11
口口③口 |①---|
口口②口 |②---|
口口①口 |③---|
口口口口 |----|
12
③口口口 |①---|
②口口口 |②---|
①口口口 |③---|
口口口口 |----|
13
口口口③ |①---|
口口口② |②---|
口口口① |③---|
口口口口 |----|
14
口口口口 |①---|
口口口口 |----|
口①口口 |②---|
口②口口 |----|
15
口口口口 |①---|
口口口口 |----|
口口①口 |②---|
口口②口 |----|
16
口口口口 |①---|
口口口口 |----|
口口口口 |----|
①口口① |----|
17
口口口口 |①---|
口口②口 |----|
口①口口 |②---|
口口口口 |----|
18
口口口口 |①---|
口口口口 |----|
口①口口 |②---|
口②口口 |----|
19
口口口口 |①---|
口口口口 |----|
口口①口 |②---|
口口②口 |----|
20
口口口口 |①---|
口口口口 |----|
口口口口 |----|
①口口① |----|
21
口口口口 |①---|
口口②口 |----|
口①口口 |②---|
口口口口 |----|
22
口口口口 |①---|
①②口口 |②---|
口口口口
口口口口

口口口口
④口③④
口口③口 |③---|
口口口口 |--④-|
23
口口口口 |----|
口口口口 |----|
①口口① |①---|
口口口口 |----|
24
口口口口 |①---|
口③②① |②---|
口③口口 |③---|
口口口口 |----|
25
口口①口 |①---|
口②口口 |②---|
口口③口 |③---|
口④口口 |④---|
26
口口口口 |①---|
①②口口 |②---|
口口口口
口口口口

口口口口
④口③④
口口③口 |③---|
口口口口 |--④-|
27
口口口口 |----|
口口口口 |----|
①口口① |①---|
口口口口 |----|
28
口口口口 |①---|
口③②① |②---|
口③口口 |③---|
口口口口 |----|
29
口④口口 |①---|
口口③口 |②---|
口②口口 |③---|
口口①口 |④---|
30
①口口① |①---|
口口口口 |----|
口口口口 |----|
口口口口 |----|
31
口口口口 |①---|
口①①口 |----|
口口口口 |----|
口口口口 |----|
32
口口口口 |①---|
口口口口 |②---|
④③②① |③---|
口口口口 |④---|
33
口口口口 |①---|
口①①口 |----|
口②②口 |②---|
口口口口 |----|
34
口口口口 |①---|
①口口① |----|
②③口口 |②---|
口口口口 |③---|
35
口口口口 |①---|
口③③口 |②---|
口口①② |③---|
口口口口 |----|
36
口口①口 |①---|
口②口口 |②---|
⑤口③⑤ |③---|
口④口口 |④-⑤-|
37
口口口口 |--①-|
口⑤⑥口 |②-③-|
口②①口 |④---|
口④③口 |⑤-⑥-|
38
①口口① |①---|
口口口口 |----|
②③口口 |②---|
口口口口 |③---|
39
口口口口 |①---|
口口口③ |②---|
口口①② |③---|
口口口口 |----|
40
口口口口 |①---|
口口口口 |②---|
口②④口 |③---|
口①③口 |④---|
41
口口口口 |①---|
口⑤④口 |②---|
口②口口 |③---|
口①③口 |④-⑤-|
42
①口口① |①---|
口口口口 |----|
口口③② |②---|
口口口口 |③---|
43
口口口口 |①---|
③口口口 |②---|
②①口口 |③---|
口口口口 |----|
44
口口口口 |①---|
口口口口 |②---|
口④②口 |③---|
口③①口 |④---|
45
口口口口 |①---|
口⑤④口 |②---|
口口②口 |③---|
口③①口 |④-⑤-|
46
①口口① |①---|
口口口口 |----|
②③口口 |②---|
口口口口 |③---|
47
口口口口 |①---|
口口口③ |②---|
口口①② |③---|
口口口口 |----|
48
口口口口 |①---|
口口口口 |②---|
口②④口 |③---|
口①③口 |④---|
49
口口口口 |①---|
口⑤④口 |②---|
口②口口 |③---|
口①③口 |④-⑤-|
50
①口口① |①---|
口口口口 |----|
口口③② |②---|
口口口口 |③---|
51
口口口口 |①---|
③口口口 |②---|
②①口口 |③---|
口口口口 |----|
52
口口口口 |①---|
口口口口 |②---|
口④②口 |③---|
口③①口 |④---|
53
口口口口 |①---|
口口口口 |②---|
口④②口 |③---|
口③①口 |④---|
54
①②口口 |①---|
口口口口 |----|
口口口口 |②---|
口口口口 |----|
55
口口②① |①---|
口口口口 |----|
口口口口 |②---|
口口口口 |----|
56
口口口口 |①---|
①②口口 |----|
口口口口 |②---|
口口口口 |----|
57
口口口口 |①---|
口口②① |----|
口口口口 |②---|
口口口口 |----|
58
口③口口 |①---|
口②口口 |②---|
口①口口 |③---|
口口口口 |----|
59
口口③口 |①---|
口口②口 |②---|
口口①口 |③---|
口口口口 |----|
60
③口口口 |①---|
②口口口 |②---|
①口口口 |③---|
口口口口 |----|
61
口口口③ |①---|
口口口② |②---|
口口口① |③---|
口口口口 |----|
62
口③③口 |①--②|
口②②口 |--③-|
口①①口 |----|
口口口口 |----|

不確定度: 0

最終更新:2016年07月27日 22:53