Just Believe
小寺可南子

ADVANCED

Level: 7
BPM: 194
Notes: 495

1
口口口口 |----|
口口口口 |----|
口口口口 |----|
口口口口 |----|
2
口口①口 |----|
口②口口 |----|
口口③口 |--①-|
口口口口 |②-③-|
3
口口口口 |①---|
口口②口 |----|
口③口口 |--②-|
口①④口 |③-④-|
4
口口口口 |----|
③口口口 |----|
②口口口 |--①-|
①口口口 |②-③-|
5
口⑥⑥口 |--①-|
口⑤⑤③ |②-③-|
口④④② |--④-|
口口口① |⑤-⑥-|
6
③口口③ |--①-|
②口④② |②-③-|
①口口① |----|
口口口口 |--④-|
7
④口口④ |①---|
口②口口 |----|
口①③口 |②-③-|
口口口口 |--④-|
8
口口口口 |----|
口④④① |①---|
口口②口 |②---|
口③口口 |③-④-|
9
②口口② |--①-|
口口口口 |②---|
口口口口 |----|
①口口① |----|
10
口口口口 |①--②|
口口①口 |--③-|
口②口口 |----|
④口③④ |④---|
11
③②①口 |①-②-|
口口口口 |③---|
④口口⑤ |④-⑤-|
口口口口 |----|
12
口①口口 |①--②|
口口②口 |--③-|
口③口口 |④-⑤-|
⑦⑥⑤④ |⑥-⑦-|
13
③②①口 |①-②-|
口口口口 |③---|
④口口⑤ |④-⑤-|
口口口口 |----|
14
口口口口 |①--②|
口①口口 |--③-|
口口②口 |----|
④③口④ |④---|
15
口①②③ |①-②-|
口口口口 |③---|
⑤口口④ |④-⑤-|
口口口口 |----|
16
口口口口 |①--②|
口⑥①口 |--③-|
口②⑤口 |④--⑤|
口④③口 |--⑥-|
17
①口口① |--①-|
口口④口 |--②-|
口口口口 |③---|
②③口口 |④---|
18
口口口口 |①-②-|
⑤③口④ |--③-|
口口口⑥ |--④-|
口口②① |⑤-⑥-|
19
口口口口 |①---|
④③③④ |②-③-|
①⑤⑤口 |--④-|
口②②口 |--⑤-|
20
口①①口 |①---|
⑤口口④ |----|
③口口② |②-③-|
口口口口 |④-⑤-|
21
口⑤⑤① |--①-|
口口②口 |②-③-|
口③口口 |④---|
④口口口 |⑤---|
22
口口口口 |①-②-|
⑤③③④ |--③-|
口口①⑥ |--④-|
口②口口 |⑤-⑥-|
23
⑤口口⑤ |①---|
口③③口 |②-③-|
①④④口 |--④-|
口②②口 |--⑤-|
24
口口口口 |----|
④口口③ |----|
②口口① |①-②-|
口口口口 |③-④-|
25
①⑤⑤口 |--①-|
口②口口 |②-③-|
口口③口 |④---|
口口口④ |⑤---|
26
口口口口 |①-②-|
⑤③③④ |--③-|
口①口⑥ |--④-|
口口②口 |⑤-⑥-|
27
口口口口 |①---|
④③③④ |②-③-|
①⑤⑤口 |--④-|
口②②口 |--⑤-|
28
口①①口 |①---|
⑤口口④ |----|
③口口② |②-③-|
口口口口 |④-⑤-|
29
③口口② |--①-|
口④④口 |--②-|
口口口口 |③---|
口①①口 |④---|
30
口③③口 |①-②-|
⑤口口④ |--③-|
口口①⑥ |--④-|
口②口口 |⑤-⑥-|
31
⑤口口⑤ |①---|
口③③口 |②-③-|
①④④口 |--④-|
口②②口 |--⑤-|
32
口口口口 |----|
口①②口 |----|
口②①口 |①---|
口口口口 |②---|
33
口口口① |①---|
口口口② |②---|
口口口③ |③---|
口口口④ |④---|
34
口①①口 |①---|
口口②口 |②-③-|
口③口口 |----|
口口口口 |----|
35
①口口口 |①---|
②口口口 |②---|
③口口口 |③---|
④口口口 |④---|
36
口①①口 |①---|
④②口④ |②-③-|
口口③口 |----|
口口口口 |④---|
37
④口口③ |①---|
口②①口 |②---|
口①②口 |③---|
③口口④ |④---|
38
口口①口 |①---|
口②口口 |②---|
口口③口 |③---|
口④口口 |④---|
39
①口口① |①---|
口口②口 |②-③-|
口③口口
口口口口

⑤口口口
口口口口
⑤口口口 |--④-|
口④④口 |--⑤-|
40
口③③① |①---|
口口口口 |--②-|
口②②① |----|
口口口口 |③---|
41
①口口① |①---|
②口口② |②---|
③口口③ |③---|
④口口④ |④---|
42
口①①口 |①---|
口口②口 |②-③-|
口③口口 |----|
口④④口 |④---|
43
①口口① |①---|
②口口② |②---|
③口口③ |③---|
④口口④ |④---|
44
口①①口 |①---|
口②口口 |②-③-|
口口③口 |----|
口④④口 |④---|
45
①④④① |①---|
口口口口 |②-③-|
③口口② |--④-|
口⑤⑤口 |--⑤-|
46
口口口口 |--①-|
②口口① |②---|
口口口口 |③---|
③④④③ |④---|
47
①口口① |①---|
口②③口 |②-③-|
口③②口
口口口口

⑤⑤⑤⑤
口口口口
口口口口 |--④-|
口④④口 |--⑤-|
48
口口口口 |----|
口口口口 |----|
口口口口 |----|
口口口口 |----|
49
④口口③ |①-②-|
口口⑤口 |③-④-|
口口⑥口 |--⑤-|
②口⑦① |⑥-⑦-|
50
口①①口 |①---|
口④③② |----|
口④③② |--②-|
口口口口 |③-④-|
51
口口口③ |----|
口口口口 |----|
口口口① |--①-|
口口口② |②-③-|
52
③口口口 |--①-|
口④④口 |②-③-|
①⑤⑤口 |--④-|
②⑥⑥口 |⑤-⑥-|
53
口①口口 |----|
①口口口 |----|
口口口口 |----|
口口口口 |①---|
54
口口①口 |①---|
口口口① |②-③-|
口②口口
口口③口

口⑤⑤口
口口口口
④口口④ |--④-|
口口口口 |--⑤-|
55
②口口③ |----|
口口口口 |①---|
口①①口 |②---|
口③②口 |③---|
56
②口口② |①---|
③①①③ |----|
④口口④ |--②-|
口口口口 |③-④-|
57
②口口① |----|
口口口口 |----|
口口口口 |①---|
①口口② |②---|
58
口①①口 |①---|
②③④口 |----|
②③④口 |--②-|
口口口口 |③-④-|
59
③口口口 |----|
口口口口 |----|
①口口口 |--①-|
②口口口 |②-③-|
60
口⑥⑥③ |--①-|
口口口口 |②-③-|
口④④① |--④-|
口⑤⑤② |⑤-⑥-|
61
口口口口 |--①-|
③③③③ |②-③-|
②④口② |----|
①口④① |--④-|
62
④③②④ |①---|
③口口② |----|
口口①口 |②-③-|
口①口口 |--④-|
63
口④④口 |----|
口①①口 |①---|
口②②口 |②---|
口③③口 |③-④-|
64
口口口口 |--①-|
口②①口 |②---|
口口口口 |----|
②口口① |----|
65
口口口口 |----|
口口口口 |----|
口口口口 |----|
①口口① |--①-|
66
①口口① |①---|
③②③② |----|
②③②③ |②-③-|
④④④④ |--④-|
67
口口①口 |----|
④②口④ |①---|
口口③口 |②---|
口口口口 |③-④-|
68
②②②② |--①-|
口口口口 |②---|
口口口口 |----|
①口口① |----|
69
⑤⑤口口 |①---|
口口②口 |----|
①口③① |②-③-|
口口④口 |④-⑤-|
70
⑥⑥③③ |--①-|
口口口口 |②-③-|
口①④口 |--④-|
口②⑤口 |⑤-⑥-|
71
口口③③ |--①-|
⑤④④⑤ |②-③-|
口①口口 |--④-|
口②口口 |⑤---|
72
口⑧⑦口 |①-②-|
口⑥⑤口 |③-④-|
口④③口 |⑤-⑥-|
口②①口 |⑦-⑧-|
73
⑧口口⑦ |①-②-|
⑥口口⑤ |③-④-|
④口口③ |⑤-⑥-|
②口口① |⑦-⑧-|
74
口口口口 |①---|
口①①口 |----|
口①①口 |----|
口口口口 |----|
75
口口口口 |①--②|
口口①口 |--③-|
口②口口 |----|
④口③④ |④---|
76
③②①口 |①-②-|
口口口口 |③---|
④口口⑤ |④-⑤-|
口口口口 |----|
77
口①口口 |①--②|
口口②口 |--③-|
口③口口 |④-⑤-|
⑦⑥⑤④ |⑥-⑦-|
78
③②①口 |①-②-|
口口口口 |③---|
④口口⑤ |④-⑤-|
口口口口 |----|
79
口口口口 |①--②|
口①口口 |--③-|
口口②口 |----|
④③口④ |④---|
80
口①②③ |①-②-|
口口口口 |③---|
⑤口口④ |④-⑤-|
口口口口 |----|
81
口口口口 |①--②|
口⑥①口 |--③-|
口②⑤口 |④--⑤|
口④③口 |--⑥-|

不確定度: 0

最終更新:2016年07月27日 22:22