バリ3共和国
でんぱ組.inc

BASIC

Level: 4
BPM: 183
Notes: 321

1
口口口口 |----|
口口口口 |----|
口口口口 |----|
口口口口 |----|
2
口口口口 |----|
口口口口 |----|
口口口口 |----|
口口口口 |----|
3
口口口口 |----|
口口口口 |----|
口口口口 |----|
口口口口 |----|
4
口口口口 |----|
口口口口 |----|
口口口口 |----|
口口口口 |----|
5
口口口口 |----|
口口口口 |----|
口口口口 |----|
口口口口 |----|
6
①口口口 |①---|
②口口口 |----|
口口口口 |②---|
口口口口 |----|
7
口口口口 |①---|
口口口口 |----|
①口口口 |②---|
②口口口 |----|
8
口口口口 |①---|
口口口口 |----|
口②口口 |②---|
口①口口 |----|
9
口②口口 |①---|
口①口口 |----|
口口口口 |②---|
口口口口 |----|
10
口口①口 |①---|
口口②口 |----|
口口口口 |②---|
口口口口 |----|
11
口口口口 |①---|
口口口口 |----|
口口①口 |②---|
口口②口 |----|
12
口口口口 |①---|
口口口口 |----|
口口口② |②---|
口口口① |----|
13
口口口② |①---|
口口口① |----|
口口口口 |②---|
口口口口 |----|
14
口口口口 |①---|
口①①口 |----|
口口口口 |----|
口口口口 |----|
15
口口口口 |----|
口口口口 |----|
口口口口 |----|
口口口口 |----|
16
口口口口 |①---|
口口口口 |----|
口①①口 |----|
口口口口 |----|
17
口口口口 |----|
口口口口 |----|
口口口口 |----|
口口口口 |----|
18
④口口口 |①---|
③口口口 |②---|
②口口口 |③---|
口①①口 |④---|
19
口①口口 |①---|
口②口口 |②---|
口③口口 |③---|
口④口口 |④---|
20
口口④口 |①---|
口口③口 |②---|
口口②口 |③---|
口口①口 |④---|
21
口口口① |①---|
口口口② |②---|
口口口③ |③---|
口口口④ |④---|
22
口口口口 |①---|
口②③④ |②---|
口①①口 |③---|
口口口口 |④---|
23
④③②① |①---|
口口口口 |②---|
口口口口 |③---|
口口口口 |④---|
24
口口口口 |①---|
①②③④ |②---|
口口口口 |③---|
口口口口 |④---|
25
口口口口 |①---|
口口口口 |②---|
④③②① |③---|
口口口口 |④---|
26
口口口口 |①---|
口口口口 |②---|
口口口口 |③---|
①②③④ |④---|
27
口口口口 |①---|
口口口口 |②---|
④③②① |③---|
口口口口 |④---|
28
口口口口 |①---|
①②③④ |②---|
口口口口 |③---|
口口口口 |④---|
29
④③②① |①---|
口口口口 |②---|
口口口口 |③---|
口口口口 |④---|
30
口口口口 |①---|
口①①口 |----|
口口口口 |----|
口口口口 |----|
31
①口口口 |①---|
口口口口 |----|
口口口口 |----|
口口口口 |----|
32
口口口口 |①---|
①口口口 |----|
口口口口 |----|
口口口口 |----|
33
口口口口 |①---|
口口口口 |----|
①口口口 |----|
口口口口 |----|
34
口口口口 |①---|
口①①口 |----|
口口口口 |----|
口口口口 |----|
35
口口口① |①---|
口口口口 |----|
口口口口 |----|
口口口口 |----|
36
口口口口 |①---|
口口口① |----|
口口口口 |----|
口口口口 |----|
37
口口口口 |①---|
口口口口 |----|
口口口① |----|
口口口口 |----|
38
口口口口 |①---|
口①①口 |②---|
口②③④ |③---|
口口口口 |④---|
39
口口口口 |①---|
口口口口 |②---|
口口口口 |③---|
④③②① |④---|
40
口口口口 |①---|
④③②口 |②---|
口①①口 |③---|
口口口口 |④---|
41
①②③④ |①---|
口口口口 |②---|
口口口口 |③---|
口口口口 |④---|
42
口口口口 |①---|
①①②② |--②-|
③③口口 |----|
口口口口 |③---|
43
③口口③ |--①-|
口②②口 |----|
口口①① |②---|
口口口口 |③---|
44
口①②口 |①---|
口口口③ |②---|
口口口④ |③---|
口口口口 |④---|
45
口口口口 |①---|
④口口口 |②---|
③口口口 |③---|
口②①口 |④---|
46
口口①① |①---|
口口②② |②---|
口口③③ |③---|
口口④④ |④---|
47
①①口口 |①---|
②②口口 |②---|
③③口口 |③---|
④④口口 |④---|
48
③③①① |①---|
④④②② |②---|
口口口口 |③---|
口口口口 |④---|
49
口口口口 |①---|
④口口口 |②---|
③①①口 |③---|
口②②口 |④---|
50
②②①① |①---|
④④③③ |②---|
口口口口 |③---|
口口口口 |④---|
51
口口口口 |①---|
口口口口 |②---|
②②①① |③---|
④④③③ |④---|
52
口口口口 |①---|
④④③③ |②---|
②②①① |③---|
口口口口 |④---|
53
口①①口 |①---|
口口口口 |②---|
口②②口 |----|
口口口口 |----|
54
口口①① |①---|
口口②② |②---|
口口③③ |③---|
口口④④ |④---|
55
①①口口 |①---|
②②口口 |②---|
③③口口 |③---|
④④口口 |④---|
56
③③①① |①---|
④④②② |②---|
口口口口 |③---|
口口口口 |④---|
57
口口口口 |①---|
口口口口 |②---|
③③①① |③---|
④④②② |④---|
58
②②①① |①---|
④④③③ |②---|
口口口口 |③---|
口口口口 |④---|
59
口口口口 |①---|
口口口口 |②---|
②②①① |③---|
④④③③ |④---|
60
口口口口 |①---|
④④③③ |②---|
②②①① |③---|
口口口口 |④---|
61
②①①② |①---|
口④④口 |②---|
口③③口 |③---|
口口口口 |④---|
62
口①①口 |①---|
口口口② |②---|
口口口③ |③---|
口口口④ |④---|
63
口口口口 |①---|
④口口口 |②---|
③①①口 |③---|
②口口口 |④---|
64
口④③② |①---|
口①①口 |②---|
口口口口 |③---|
口口口口 |④---|
65
口口口口 |①---|
口①①口 |②---|
②③口口 |③---|
口口④④ |④---|
66
口口口口 |----|
口口口口 |①---|
口口①① |----|
②②口口 |②---|
67
口口口口 |----|
口口②② |①---|
①①口口 |----|
口口口口 |②---|
68
口口①① |----|
口口口口 |①---|
口②②口 |----|
口口口口 |②---|
69
口口口口 |----|
①①①① |①---|
口口口口 |----|
口口口口 |----|
70
口口口① |①---|
口口口② |②---|
口口口③ |③---|
口口口④ |④---|
71
口口④口 |①---|
口口③口 |②---|
口口②口 |③---|
口口①口 |④---|
72
口①口口 |①---|
口②口口 |②---|
口③口口 |③---|
口④口口 |④---|
73
④口口口 |①---|
③口口口 |②---|
②口口口 |③---|
①口口口 |④---|
74
口①口口 |①---|
口②口口 |②---|
口③口口 |③---|
口④口口 |④---|
75
口口④口 |①---|
口口③口 |②---|
口口②口 |③---|
口口①口 |④---|
76
口口口① |①---|
口口口② |②---|
口口口③ |③---|
口口口④ |④---|
77
口口④口 |①---|
口口③口 |②---|
口口②口 |③---|
口口①口 |④---|
78
口口口口 |①---|
①①口口 |----|
口口口口 |----|
口口口口 |----|
79
口口口口 |①---|
口口①① |----|
口口口口 |----|
口口口口 |----|
80
口口口口 |①---|
口口口口 |----|
①①口口 |----|
口口口口 |----|
81
口口口口 |①---|
口口口口 |----|
口口①① |----|
口口口口 |----|
82
口口口口 |①---|
口①①口 |----|
口①①口 |----|
口口口口 |----|

不確定度: 0

最終更新:2016年07月27日 22:30