フレ降レミライ
北高文芸部女子会

BASIC

Level: 3
BPM: 172
Notes: 224

1
口口口口 |----|
口口口口 |----|
口口口口 |----|
口口口口 |----|
2
口口口口 |①---|
口①口口 |----|
口②口口 |②---|
口口口口 |----|
3
口口口口 |①---|
口③②① |②---|
口口口口 |③---|
口口口口 |----|
4
口口口口 |①---|
口口口口 |②---|
①②③口 |③---|
口口口口 |----|
5
③口口③ |①---|
口①①口 |----|
口②②口 |②---|
口口口口 |--③-|
6
口口口口 |----|
①口口① |----|
口口口口 |①---|
口口口口 |----|
7
口口口口 |①---|
口口口口 |②---|
①②③口 |③---|
口口口口 |----|
8
口口口口 |①---|
口口口口 |②---|
口口口口 |③---|
口③②① |----|
9
③口口③ |①---|
口①①口 |----|
口②②口 |②---|
口口口口 |--③-|
10
口口口口 |----|
①口口① |----|
口口口口 |①---|
口口口口 |----|
11
口口口口 |①---|
口口口口 |----|
①③口① |②---|
口②口口 |③---|
12
口②口口 |①---|
口①口口 |②---|
口口口口 |----|
口口口口 |----|
13
口口口口 |----|
口口①口 |①---|
口口②口 |②---|
口口口口 |----|
14
②口口② |①---|
口①①口 |----|
口口口口 |②---|
口口口口 |----|
15
口口口口 |①---|
口①口口 |②---|
口②口口 |----|
口口口口 |----|
16
口口口口 |①---|
口口②口 |②---|
口口①口 |----|
口口口口 |----|
17
口①口口 |①---|
口口②口 |②---|
口③口口 |③---|
口口④口 |④---|
18
②口口② |----|
①口口① |①---|
口口口口 |②---|
口口口口 |----|
19
口口口口 |①---|
口口口口 |----|
①口③① |②---|
口口②口 |③---|
20
口口②口 |①---|
口口①口 |②---|
口口口口 |----|
口口口口 |----|
21
口②口口 |----|
口①口口 |①---|
口口口口 |②---|
口口口口 |----|
22
口口①口 |①---|
口口②口 |②---|
口口③口 |③---|
口口口口 |----|
23
口口口口 |①---|
口①②③ |②---|
口口口口 |③---|
口口口口 |----|
24
③②①口 |①---|
口口口口 |②---|
口口口口 |③---|
口口口口 |----|
25
③口口③ |①---|
口①①口 |----|
口②②口 |②---|
口口口口 |--③-|
26
口口口口 |----|
口①口口 |----|
口②口口 |①---|
口口口口 |②---|
27
口口口口 |①---|
口口口口 |----|
口口口口 |----|
口①②口 |②---|
28
口口口口 |①---|
口口口口 |----|
口口①口 |----|
口口口口 |----|
29
口口口口 |①---|
口口口口 |②---|
口口口口 |③---|
④③②① |④---|
30
口口口口 |①---|
口②②口 |----|
口①①口 |②---|
口口口口 |----|
31
口①①口 |①---|
口口②口 |----|
口口口口 |----|
口口口口 |②---|
32
口口口口 |①---|
口③口口 |----|
口②①口 |②---|
口口口口 |③---|
33
口①口口 |①---|
口口口口 |----|
口②②口 |②---|
口口口口 |----|
34
口口口口 |①---|
①②③口 |②---|
口口口口 |③---|
口口口口 |----|
35
③③③③ |①---|
口②②口 |--②-|
口①①口 |----|
口口口口 |③---|
36
口①①口 |----|
口口口口 |----|
口口口口 |----|
口口口口 |①---|
37
①口口① |----|
口口口口 |----|
口口口口 |①---|
口口口口 |----|
38
口口口口 |①---|
口①口口 |②---|
口②口口 |③---|
口③口口 |----|
39
口口口口 |①---|
口口①口 |②---|
口口②口 |③---|
口口③口 |----|
40
口口口口 |①---|
①口口① |----|
②口口② |②---|
口口口口 |----|
41
口口口口 |①---|
口②②口 |----|
口口口口 |②---|
①口口① |----|
42
口口口口 |①---|
口口口口 |②---|
①②③口 |③---|
口口口口 |----|
43
口口口口 |①---|
口口口口 |②---|
口口口口 |③---|
口③②① |----|
44
口①①口 |①---|
口②②口 |②---|
口③③口 |③---|
口④④口 |④---|
45
③口口③ |----|
②口口② |①---|
①口口① |②---|
口口口口 |③---|
46
口口口口 |①---|
口口①口 |②---|
口口②口 |③---|
口口③口 |----|
47
口口口口 |①---|
口①口口 |②---|
口②口口 |③---|
口③口口 |----|
48
口口口口 |①---|
①口口① |----|
②口口② |②---|
口口口口 |----|
49
口口口口 |①---|
口②②口 |----|
口口口口 |②---|
①口口① |----|
50
口口①口 |----|
口口②口 |①---|
口口③口 |②---|
口口口口 |③---|
51
口口口口 |①---|
口④口口 |②---|
口③口口 |③---|
口②①口 |④---|
52
②①口② |①---|
口口口口 |----|
口口口口 |②---|
口口口口 |----|
53
口口口口 |①---|
口①①口 |----|
口②②口 |②---|
口口口口 |----|
54
口口口口 |①---|
口②②口 |----|
口口口口 |②---|
口①①口 |----|
55
口口口口 |①---|
口口口口 |②---|
①②③口 |③---|
口口口口 |----|
56
口口口口 |①---|
口③②① |②---|
口口口口 |③---|
口口口口 |----|
57
口②②口 |①---|
口口口口 |----|
口①①口 |②---|
口口口口 |----|
58
口口口口 |①---|
①②③④ |②---|
口口口口 |③---|
口口口口 |④---|
59
口口口口 |----|
口②②口 |①---|
口①①口 |②---|
口口口口 |----|
60
口口口口 |①---|
④③②① |②---|
口口口口 |③---|
口口口口 |④---|
61
口口口口 |----|
口②②口 |①---|
口①①口 |②---|
口口口口 |----|
62
①口口① |①---|
②口口② |--②-|
③口口③ |----|
口口口口 |③---|
63
口口口口 |--①-|
口口口口 |----|
口口口口 |②---|
①②②① |----|
64
③③③③ |①---|
口②②口 |--②-|
口①①口 |----|
口口口口 |③---|

不確定度: 0

最終更新:2016年07月27日 22:33